找回密码

蓝光电影网

查看: 157|回复: 0

[喜剧] 祖庙闹鬼记 Bhool.Bhulaiyaa.2007.1080p.BluRay.x264-YAMG 13.14GB

[复制链接]
蓝光币
1022
发表于 2022-8-1 08:44:10 | 显示全部楼层 |阅读模式


◎译  名 祖庙闹鬼记
◎片  名 Bhool Bhulaiyaa
◎年  代 2007
◎产  地 印度
◎类  别 笑剧 / 悬疑 / 惊悚 / 可骇
◎语  言 印地语
◎上映日期 2007-10-12
◎IMDb链接 https://www.imdb.com/title/tt0995031/
◎豆瓣评分 6.4/10 (201人评价)
◎豆瓣链接 https://movie.douban.com/subject/2325542/
◎片  长 154分钟
◎导  演 普利亚当沙 Priyadarshan (id:1294941)
◎编  剧 尼拉杰.沃拉 Neeraj Vora (id:1322816)
◎演  员 阿克谢·库玛尔 Akshay Kumar (id:1049615)
       薇迪亚·巴兰 Vidya Balan (id:1183702)
       希尼·阿胡贾 Shiney Ahuja (id:1201425)
       阿米莎·帕泰拉 Ameesha Patel (id:1136144)
       帕莱什·拉瓦尔 Paresh Rawal (id:1138139)
       拉兹巴·亚达夫 Rajpal Yadav (id:1302957)
       阿斯拉尼 Asrani (id:1257941)
       维克拉姆·戈克哈尔 Vikram Gokhale (id:1402285)
       维尼特 Vineeth (id:1355218)
       吉米特·特里韦迪 Jimit Trivedi (id:1403071)
       希玛·玛丽妮 Hema Malini (id:1027950)
       普里达姆·查克拉博蒂 Pritam Chakraborty (id:1312560)
       萨布·西里尔 Sabu Cyril (id:1281660)
◎简  介

  本片是一部非常风趣的惊悚笑剧,在牢牢把握观众的同时,影片中新奇妙秘的事务也吊足了观众的胃口。故事的布景是一个守旧并科学的小村落,信仰婆罗门教的马诺吉保护着祖庙,虽然大师都说祖庙一向闹鬼。某天,马诺吉假寓美国的侄子阿胡加及侄媳薇蒂雅回到小村落,并要在祖庙住上一阵子。薇蒂雅无意间翻开了一扇锁着的房间,因而,希奇的工作起头发生。祖庙真的闹鬼了。马诺吉请了一些江湖术士驱鬼降魔,可并不见什么结果。大师起头埋怨。荣幸的是,在薇蒂雅的一个神经病学专家的帮助下,他们找到了真凶并揭开了谜题。本片作为一部将笑剧及惊悚元素融合得很好的作品,导演从分歧的角度审阅了藏于人类心里的超越我们设想的精神层面,是一部不成多得的惊悚笑剧影片。
  1. Video
  2. ID                                       : 1
  3. Format                                   : AVC
  4. Format/Info                              : Advanced Video Codec
  5. Format profile                           : [email protected]
  6. Format settings                          : CABAC / 5 Ref Frames
  7. Format settings, CABAC                   : Yes
  8. Format settings, Reference frames        : 5 frames
  9. Codec ID                                 : V_MPEG4/ISO/AVC
  10. Duration                                 : 2 h 34 min
  11. Bit rate                                 : 8 201 kb/s
  12. Width                                    : 1 920 pixels
  13. Height                                   : 818 pixels
  14. Display aspect ratio                     : 2.35:1
  15. Frame rate mode                          : Constant
  16. Frame rate                               : 23.976 (24000/1001/189150) FPS
  17. Color space                              : YUV
  18. Chroma subsampling                       : 4:2:0
  19. Bit depth                                : 8 bits
  20. Scan type                                : Progressive
  21. Bits/(Pixel*Frame)                       : 0.218
  22. Stream size                              : 8.86 GiB (67%)
  23. Writing library                          : x264 core 164 r3095 baee400
  24. Encoding settings                        : cabac=1 / ref=5 / deblock=1:-3:-3 / analyse=0x3:0x133 / me=umh / subme=10 / psy=1 / psy_rd=1.00:0.00 / mixed_ref=1 / me_range=32 / chroma_me=1 / trellis=2 / 8x8dct=1 / cqm=0 / deadzone=21,11 / fast_pskip=0 / chroma_qp_offset=-2 / threads=24 / lookahead_threads=4 / sliced_threads=0 / nr=0 / decimate=0 / interlaced=0 / bluray_compat=0 / constrained_intra=0 / bframes=8 / b_pyramid=2 / b_adapt=2 / b_bias=0 / direct=3 / weightb=1 / open_gop=0 / weightp=2 / keyint=250 / keyint_min=23 / scenecut=40 / intra_refresh=0 / rc=crf / mbtree=0 / crf=17.0 / qcomp=0.60 / qpmin=0 / qpmax=69 / qpstep=4 / ip_ratio=1.40 / pb_ratio=1.30 / aq=3:0.60
  25. Language                                 : English
  26. Default                                  : Yes
  27. Forced                                   : No
  28. Color range                              : Limited
  29. Matrix coefficients                      : BT.709

  30. Audio
  31. ID                                       : 2
  32. Format                                   : DTS XLL
  33. Format/Info                              : Digital Theater Systems
  34. Commercial name                          : DTS-HD Master Audio
  35. Codec ID                                 : A_DTS
  36. Duration                                 : 2 h 34 min
  37. Bit rate mode                            : Variable
  38. Bit rate                                 : 3 951 kb/s
  39. Channel(s)                               : 6 channels
  40. Channel layout                           : C L R Ls Rs LFE
  41. Sampling rate                            : 48.0 kHz
  42. Frame rate                               : 93.750 FPS (512 SPF)
  43. Bit depth                                : 24 bits
  44. Compression mode                         : Lossless
  45. Stream size                              : 4.27 GiB (32%)
  46. Title                                    : Hindi
  47. Language                                 : Hindi
  48. Default                                  : Yes
  49. Forced                                   : No

  50. Text #1
  51. ID                                       : 3
  52. Format                                   : UTF-8
  53. Codec ID                                 : S_TEXT/UTF8
  54. Codec ID/Info                            : UTF-8 Plain Text
  55. Duration                                 : 2 h 31 min
  56. Bit rate                                 : 59 b/s
  57. Count of elements                        : 1971
  58. Stream size                              : 66.4 KiB (0%)
  59. Title                                    : English Forced
  60. Language                                 : English
  61. Default                                  : Yes
  62. Forced                                   : Yes

  63. Text #2
  64. ID                                       : 4
  65. Format                                   : PGS
  66. Muxing mode                              : zlib
  67. Codec ID                                 : S_HDMV/PGS
  68. Codec ID/Info                            : Picture based subtitle format used on BDs/HD-DVDs
  69. Duration                                 : 2 h 31 min
  70. Bit rate                                 : 26.7 kb/s
  71. Count of elements                        : 3469
  72. Stream size                              : 28.9 MiB (0%)
  73. Title                                    : English Forced
  74. Language                                 : English
  75. Default                                  : No
  76. Forced                                   : No

  77. Menu
  78. 00:00:00.000                             : :Chapter 01
  79. 00:05:57.774                             : :Chapter 02
  80. 00:16:44.670                             : :Chapter 03
  81. 00:24:12.743                             : :Chapter 04
  82. 00:32:09.094                             : :Chapter 05
  83. 00:44:10.481                             : :Chapter 06
  84. 00:59:07.419                             : :Chapter 07
  85. 01:27:27.159                             : :Chapter 08
  86. 01:34:59.736                             : :Chapter 09
  87. 01:39:34.802                             : :Chapter 10
  88. 01:46:36.307                             : :Chapter 11
  89. 02:00:32.142                             : :Chapter 12
  90. 02:06:32.001                             : :Chapter 13
  91. 02:14:20.094                             : :Chapter 14
  92. 02:21:42.244                             : :Chapter 15
  93. 02:32:13.124                             : :Chapter 16
复制代码




                                       
                                       

                                       
                                       
                                       




回复

使用道具 举报

懒得打字嘛,点击右侧快捷回复 【右侧内容,后台自定义】
您需要登录后才可以回帖 登录 | 立即加入

本版积分规则

Archiver|小黑屋| 蓝光电影网 |网站地图

Copyright © 2021 Comsenz Inc. Powered by 蓝光电影网

蓝光电影网

本站内容由用户自主分享和转载自互联网,转载目的在于传递更多信息,并不代表本网赞同其观点和对其真实性负责。

如有侵权、违反国家法律政策行为,请联系我们,我们会第一时间及时清除和处理!

举报反馈邮箱:[email protected]

快速回复 返回顶部 返回列表