找回密码

蓝光电影网

查看: 39|回复: 2

[其他] 创伤 Trauma.1993.UNCUT.PROPER.720p.BluRay.x264-YAMG 5.58GB

[复制链接]
蓝光币
886
发表于 2022-8-1 09:06:26 | 显示全部楼层 |阅读模式


◎译  名 创伤 / 外伤 / Dario Argento's Trauma
◎片  名 Trauma
◎年  代 1993
◎产  地 意大利 / 美国
◎类  别 悬疑 / 惊悚 / 可骇
◎语  言 英语
◎上映日期 1993-03-12
◎IMDb链接 https://www.imdb.com/title/tt0104053/
◎豆瓣评分 6.1/10 (186人评价)
◎豆瓣链接 https://movie.douban.com/subject/1882845/
◎片  长 106 分钟
◎导  演 达里奥·阿基多 Dario Argento (id:1049726)
◎编  剧 弗兰科·费里尼 Franco Ferrini (id:1017013)
       吉亚尼·洛莫里 Gianni Romoli (id:1012781)
       达里奥·阿基多 Dario Argento (id:1049726)
◎演  员 克里斯多夫·莱德尔 Christopher Rydell (id:1348020)
       艾莎·阿基多 Asia Argento (id:1049556)
       派珀·劳瑞 Piper Laurie (id:1007044)
       弗雷德里克·福瑞斯特 Frederic Forrest (id:1013982)
       劳拉·约翰逊 Laura Johnson (id:1109874)
       詹姆斯·拉索 James Russo (id:1048175)
       布拉德·道里夫 Brad Dourif (id:1031866)
       杰奎琳·金 Jacqueline Kim (id:1111142)
       菲奥蕾·阿基多 Fiore Argento (id:1472163)
       达里奥·阿基多 Dario Argento (id:1049726)
       皮诺·多纳乔 Pino Donaggio (id:1037222)
       达里奥·阿基多 Dario Argento (id:1049726)
       Cheryl Ann Nick Cheryl Ann Nick (id:1055731)
       格雷格·方克 Greg Funk (id:1284333)
       Will Huff Will Huff (id:1287096)
       汤姆·萨维尼 Tom Savini (id:1041207)
       Tracey Levy Tracey Levy (id:1289926)
◎简  介

  一个小伙子想法子帮助一个欧洲小姑娘。小姑娘刚从医院医院逃出来,由于她目击了自己的怙恃被一个连环杀手谋杀。因而他们俩要在杀手找到他们之前先动手为强……
  1. Video
  2. ID                                       : 1
  3. Format                                   : AVC
  4. Format/Info                              : Advanced Video Codec
  5. Format profile                           : [email protected]
  6. Format settings                          : CABAC / 12 Ref Frames
  7. Format settings, CABAC                   : Yes
  8. Format settings, Reference frames        : 12 frames
  9. Codec ID                                 : V_MPEG4/ISO/AVC
  10. Duration                                 : 1 h 49 min
  11. Bit rate                                 : 5 740 kb/s
  12. Width                                    : 1 280 pixels
  13. Height                                   : 544 pixels
  14. Display aspect ratio                     : 2.35:1
  15. Frame rate mode                          : Constant
  16. Frame rate                               : 23.976 (24000/1001/189150) FPS
  17. Color space                              : YUV
  18. Chroma subsampling                       : 4:2:0
  19. Bit depth                                : 8 bits
  20. Scan type                                : Progressive
  21. Bits/(Pixel*Frame)                       : 0.344
  22. Stream size                              : 4.39 GiB (79%)
  23. Writing library                          : x264 core 164 r3081 19856cc
  24. Encoding settings                        : cabac=1 / ref=12 / deblock=1:-3:-3 / analyse=0x3:0x133 / me=umh / subme=10 / psy=1 / psy_rd=1.00:0.00 / mixed_ref=1 / me_range=32 / chroma_me=1 / trellis=2 / 8x8dct=1 / cqm=0 / deadzone=21,11 / fast_pskip=0 / chroma_qp_offset=-2 / threads=17 / lookahead_threads=2 / sliced_threads=0 / nr=0 / decimate=0 / interlaced=0 / bluray_compat=0 / constrained_intra=0 / bframes=8 / b_pyramid=2 / b_adapt=2 / b_bias=0 / direct=3 / weightb=1 / open_gop=0 / weightp=2 / keyint=250 / keyint_min=23 / scenecut=40 / intra_refresh=0 / rc=crf / mbtree=0 / crf=17.0 / qcomp=0.60 / qpmin=0 / qpmax=69 / qpstep=4 / ip_ratio=1.40 / pb_ratio=1.30 / aq=3:0.60
  25. Language                                 : English
  26. Default                                  : Yes
  27. Forced                                   : No
  28. Color range                              : Limited
  29. Matrix coefficients                      : BT.709

  30. Audio #1
  31. ID                                       : 2
  32. Format                                   : FLAC
  33. Format/Info                              : Free Lossless Audio Codec
  34. Codec ID                                 : A_FLAC
  35. Duration                                 : 1 h 49 min
  36. Bit rate mode                            : Variable
  37. Bit rate                                 : 1 339 kb/s
  38. Channel(s)                               : 2 channels
  39. Channel layout                           : L R
  40. Sampling rate                            : 48.0 kHz
  41. Frame rate                               : 11.719 FPS (4096 SPF)
  42. Bit depth                                : 24 bits
  43. Compression mode                         : Lossless
  44. Stream size                              : 1.03 GiB (18%)
  45. Title                                    : English
  46. Writing library                          : libFLAC 1.3.3 (UTC 2019-08-04)
  47. Language                                 : English
  48. Default                                  : Yes
  49. Forced                                   : No

  50. Audio #2
  51. ID                                       : 3
  52. Format                                   : AAC LC
  53. Format/Info                              : Advanced Audio Codec Low Complexity
  54. Codec ID                                 : A_AAC-2
  55. Duration                                 : 1 h 49 min
  56. Bit rate                                 : 101 kb/s
  57. Channel(s)                               : 2 channels
  58. Channel layout                           : L R
  59. Sampling rate                            : 48.0 kHz
  60. Frame rate                               : 46.875 FPS (1024 SPF)
  61. Compression mode                         : Lossy
  62. Delay relative to video                  : 20 ms
  63. Stream size                              : 78.9 MiB (1%)
  64. Title                                    : Commentary with The Hysteria Continues!
  65. Language                                 : English
  66. Default                                  : No
  67. Forced                                   : No

  68. Audio #3
  69. ID                                       : 4
  70. Format                                   : AAC LC
  71. Format/Info                              : Advanced Audio Codec Low Complexity
  72. Codec ID                                 : A_AAC-2
  73. Duration                                 : 1 h 49 min
  74. Bit rate                                 : 99.0 kb/s
  75. Channel(s)                               : 2 channels
  76. Channel layout                           : L R
  77. Sampling rate                            : 48.0 kHz
  78. Frame rate                               : 46.875 FPS (1024 SPF)
  79. Compression mode                         : Lossy
  80. Delay relative to video                  : 20 ms
  81. Stream size                              : 77.6 MiB (1%)
  82. Title                                    : Commentary with film historian and author Alexandra Heller-Nicholas
  83. Language                                 : English
  84. Default                                  : No
  85. Forced                                   : No

  86. Text #1
  87. ID                                       : 5
  88. Format                                   : UTF-8
  89. Codec ID                                 : S_TEXT/UTF8
  90. Codec ID/Info                            : UTF-8 Plain Text
  91. Duration                                 : 1 h 47 min
  92. Bit rate                                 : 38 b/s
  93. Count of elements                        : 1208
  94. Stream size                              : 30.7 KiB (0%)
  95. Title                                    : English
  96. Language                                 : English
  97. Default                                  : No
  98. Forced                                   : No

  99. Text #2
  100. ID                                       : 6
  101. Format                                   : UTF-8
  102. Codec ID                                 : S_TEXT/UTF8
  103. Codec ID/Info                            : UTF-8 Plain Text
  104. Duration                                 : 1 h 49 min
  105. Bit rate                                 : 46 b/s
  106. Count of elements                        : 1492
  107. Stream size                              : 37.4 KiB (0%)
  108. Title                                    : English SDH
  109. Language                                 : English
  110. Default                                  : No
  111. Forced                                   : No

  112. Text #3
  113. ID                                       : 7
  114. Format                                   : PGS
  115. Muxing mode                              : zlib
  116. Codec ID                                 : S_HDMV/PGS
  117. Codec ID/Info                            : Picture based subtitle format used on BDs/HD-DVDs
  118. Duration                                 : 1 h 49 min
  119. Bit rate                                 : 25.7 kb/s
  120. Count of elements                        : 2985
  121. Stream size                              : 20.1 MiB (0%)
  122. Title                                    : English SDH PGS
  123. Language                                 : English
  124. Default                                  : No
  125. Forced                                   : No

  126. Menu
  127. 00:00:00.000                             : en:Chapter 01
  128. 00:20:12.211                             : en:Chapter 02
  129. 00:38:34.312                             : en:Chapter 03
  130. 00:56:31.388                             : en:Chapter 04
  131. 01:16:17.573                             : en:Chapter 05
  132. 01:32:22.537                             : en:Chapter 06
复制代码





                                       
                                       

                                       
                                       
                                       




回复

使用道具 举报

蓝光币
539
发表于 2022-8-1 09:24:04 | 显示全部楼层
楼主发贴辛苦了,谢谢楼主分享!我觉得蓝光电影网是注册对了!
回复 支持 反对

使用道具 举报

蓝光币
40
发表于 2022-8-1 13:36:54 | 显示全部楼层

楼主太厉害了!楼主,电影应该很好看我觉得蓝光电影网真是个好地方!
回复 支持 反对

使用道具 举报

懒得打字嘛,点击右侧快捷回复 【右侧内容,后台自定义】
您需要登录后才可以回帖 登录 | 立即加入

本版积分规则

Archiver|小黑屋| 蓝光电影网 |网站地图

Copyright © 2021 Comsenz Inc. Powered by 蓝光电影网

蓝光电影网

本站内容由用户自主分享和转载自互联网,转载目的在于传递更多信息,并不代表本网赞同其观点和对其真实性负责。

如有侵权、违反国家法律政策行为,请联系我们,我们会第一时间及时清除和处理!

举报反馈邮箱:[email protected]

快速回复 返回顶部 返回列表