找回密码

蓝光电影网

查看: 64|回复: 0

[爱情] 睡美人之终 The.Limit.of.Sleeping.Beauty.2017.REAL.REPACK.1080p.BluRay.x264-YAMG 10.72GB

[复制链接]
蓝光币
886
发表于 2022-8-1 17:29:14 | 显示全部楼层 |阅读模式


◎标  题 睡美人之终
◎译  名 裸睡美人(台)
◎片  名 THE LIMIT OF SLEEPING BEAUTY リミット・オブ・スリーピング ビューティ
◎年  代 2017
◎产  地 日本
◎类  别 恋爱
◎语  言 日语
◎上映日期 2017-10-21(日本)
◎IMDb评分 5.7/10 (166人评价)
◎IMDb链接 https://www.imdb.com/title/tt7112158/
◎豆瓣评分 6.0/10 (1861人评价)
◎豆瓣链接 https://movie.douban.com/subject/27081785/
◎片  长 90分钟
◎导  演 二宫健 Ken Ninomiya
◎编  剧 二宫健 Ken Ninomiya
◎演  员 樱井由纪 Yuki Sakurai
       高桥平生 Issey Takahashi
       成田凌 Ryo Narita
       满岛真之介 Shin'nosuke Mitsushima
       阿部纯子 Abe Junko
       山谷初男 Hatsuo Yamaya
       木村知贵 Tomoki Kimura
       円谷优希 Yuki Tsumuraya
       古畑新之 Niino Furuhata
◎标  签 日本 / 高桥平生 / 恋爱 / 2017 / 迷幻 / 樱井由纪 / 二宫健 / 成田凌
◎简  介

    亚纪(樱井由纪 饰)从小的胡想就是成为集万众注视于一身的明星,但是随着年龄渐渐长大,亚纪起头大白,这个胡想并不如看上去的那样鲜明亮丽。为了实现自己的胡想,亚纪孤身一人来到东京,却遭受冰冷惨烈的现实,终极,在地下俱乐部老板海斗(高桥平生 饰)的先容下,穷途末路的亚纪进入马戏团工作,成为了把戏师的助理。                                                                      天天入夜,亚纪城市穿上她的专属号衣,在把戏师的催眠下进入空想中的天下,亚纪感应,只要在这一刻,她离她的胡想才是最接近的。与此同时,在空想天下中,亚纪见到了已经分开她的情人,重温了曩昔美好的时光,渐渐地,她起头分不清现实与空想的界限。
  1. Video
  2. ID                                       : 1
  3. Format                                   : AVC
  4. Format/Info                              : Advanced Video Codec
  5. Format profile                           : [email protected]
  6. Format settings                          : CABAC / 5 Ref Frames
  7. Format settings, CABAC                   : Yes
  8. Format settings, Reference frames        : 5 frames
  9. Codec ID                                 : V_MPEG4/ISO/AVC
  10. Duration                                 : 1 h 30 min
  11. Bit rate                                 : 13.4 Mb/s
  12. Width                                    : 1 920 pixels
  13. Height                                   : 802 pixels
  14. Display aspect ratio                     : 2.40:1
  15. Frame rate mode                          : Constant
  16. Frame rate                               : 23.976 (24000/1001/189150) FPS
  17. Color space                              : YUV
  18. Chroma subsampling                       : 4:2:0
  19. Bit depth                                : 8 bits
  20. Scan type                                : Progressive
  21. Bits/(Pixel*Frame)                       : 0.364
  22. Stream size                              : 8.46 GiB (80%)
  23. Writing library                          : x264 core 164 r3081 19856cc
  24. Encoding settings                        : cabac=1 / ref=5 / deblock=1:-3:-3 / analyse=0x3:0x133 / me=umh / subme=10 / psy=1 / psy_rd=1.00:0.00 / mixed_ref=1 / me_range=32 / chroma_me=1 / trellis=2 / 8x8dct=1 / cqm=0 / deadzone=21,11 / fast_pskip=0 / chroma_qp_offset=-2 / threads=24 / lookahead_threads=4 / sliced_threads=0 / nr=0 / decimate=0 / interlaced=0 / bluray_compat=0 / constrained_intra=0 / bframes=8 / b_pyramid=2 / b_adapt=2 / b_bias=0 / direct=3 / weightb=1 / open_gop=0 / weightp=2 / keyint=250 / keyint_min=23 / scenecut=40 / intra_refresh=0 / rc=crf / mbtree=0 / crf=16.0 / qcomp=0.60 / qpmin=0 / qpmax=69 / qpstep=4 / ip_ratio=1.40 / pb_ratio=1.30 / aq=3:0.60
  25. Language                                 : English
  26. Default                                  : Yes
  27. Forced                                   : No
  28. Color range                              : Limited
  29. Matrix coefficients                      : BT.709

  30. Audio #1
  31. ID                                       : 2
  32. Format                                   : MLP FBA
  33. Format/Info                              : Meridian Lossless Packing FBA
  34. Commercial name                          : Dolby TrueHD
  35. Codec ID                                 : A_TRUEHD
  36. Duration                                 : 1 h 30 min
  37. Bit rate mode                            : Variable
  38. Bit rate                                 : 2 654 kb/s
  39. Maximum bit rate                         : 4 590 kb/s
  40. Channel(s)                               : 6 channels
  41. Channel layout                           : L R C LFE Ls Rs
  42. Sampling rate                            : 96.0 kHz
  43. Frame rate                               : 1 200.000 FPS (80 SPF)
  44. Compression mode                         : Lossless
  45. Stream size                              : 1.67 GiB (16%)
  46. Title                                    : Japanese
  47. Language                                 : Japanese
  48. Default                                  : Yes
  49. Forced                                   : No

  50. Audio #2
  51. ID                                       : 3
  52. Format                                   : AC-3
  53. Format/Info                              : Audio Coding 3
  54. Commercial name                          : Dolby Digital
  55. Format settings                          : Dolby Surround EX
  56. Codec ID                                 : A_AC3
  57. Duration                                 : 1 h 30 min
  58. Bit rate mode                            : Constant
  59. Bit rate                                 : 640 kb/s
  60. Channel(s)                               : 6 channels
  61. Channel layout                           : L R C LFE Ls Rs
  62. Sampling rate                            : 48.0 kHz
  63. Frame rate                               : 31.250 FPS (1536 SPF)
  64. Compression mode                         : Lossy
  65. Stream size                              : 413 MiB (4%)
  66. Title                                    : Japanese
  67. Language                                 : Japanese
  68. Service kind                             : Complete Main
  69. Default                                  : No
  70. Forced                                   : No

  71. Text #1
  72. ID                                       : 4
  73. Format                                   : UTF-8
  74. Codec ID                                 : S_TEXT/UTF8
  75. Codec ID/Info                            : UTF-8 Plain Text
  76. Duration                                 : 1 h 23 min
  77. Bit rate                                 : 22 b/s
  78. Count of elements                        : 588
  79. Stream size                              : 14.1 KiB (0%)
  80. Title                                    : English Forced
  81. Language                                 : English
  82. Default                                  : Yes
  83. Forced                                   : Yes

  84. Text #2
  85. ID                                       : 5
  86. Format                                   : PGS
  87. Muxing mode                              : zlib
  88. Codec ID                                 : S_HDMV/PGS
  89. Codec ID/Info                            : Picture based subtitle format used on BDs/HD-DVDs
  90. Duration                                 : 1 h 25 min
  91. Bit rate                                 : 15.2 kb/s
  92. Count of elements                        : 1249
  93. Stream size                              : 9.29 MiB (0%)
  94. Title                                    : English Forced PGS
  95. Language                                 : English
  96. Default                                  : No
  97. Forced                                   : No

  98. Text #3
  99. ID                                       : 6
  100. Format                                   : PGS
  101. Muxing mode                              : zlib
  102. Codec ID                                 : S_HDMV/PGS
  103. Codec ID/Info                            : Picture based subtitle format used on BDs/HD-DVDs
  104. Duration                                 : 1 h 25 min
  105. Bit rate                                 : 17.8 kb/s
  106. Count of elements                        : 1317
  107. Stream size                              : 10.9 MiB (0%)
  108. Title                                    : Traditional Chinese PGS
  109. Language                                 : Chinese
  110. Default                                  : No
  111. Forced                                   : No

  112. Text #4
  113. ID                                       : 7
  114. Format                                   : PGS
  115. Muxing mode                              : zlib
  116. Codec ID                                 : S_HDMV/PGS
  117. Codec ID/Info                            : Picture based subtitle format used on BDs/HD-DVDs
  118. Duration                                 : 1 h 25 min
  119. Bit rate                                 : 16.5 kb/s
  120. Count of elements                        : 1317
  121. Stream size                              : 10.1 MiB (0%)
  122. Title                                    : Simplified Chinese PGS
  123. Language                                 : Chinese
  124. Default                                  : No
  125. Forced                                   : No

  126. Menu
  127. 00:00:00.000                             : en:Chapter 01
  128. 00:03:56.570                             : en:Chapter 02
  129. 00:08:27.465                             : en:Chapter 03
  130. 00:12:57.026                             : en:Chapter 04
  131. 00:17:20.164                             : en:Chapter 05
  132. 00:21:51.101                             : en:Chapter 06
  133. 00:24:24.046                             : en:Chapter 07
  134. 00:28:41.011                             : en:Chapter 08
  135. 00:32:14.641                             : en:Chapter 09
  136. 00:37:01.594                             : en:Chapter 10
  137. 00:41:11.886                             : en:Chapter 11
  138. 00:45:00.990                             : en:Chapter 12
  139. 00:49:57.286                             : en:Chapter 13
  140. 00:57:43.418                             : en:Chapter 14
  141. 01:01:14.921                             : en:Chapter 15
  142. 01:06:04.002                             : en:Chapter 16
  143. 01:12:31.514                             : en:Chapter 17
  144. 01:16:49.230                             : en:Chapter 18
  145. 01:19:51.954                             : en:Chapter 19
  146. 01:26:46.201                             : en:Chapter 20
复制代码





                                       
                                       

                                       
                                       
                                       




回复

使用道具 举报

懒得打字嘛,点击右侧快捷回复 【右侧内容,后台自定义】
您需要登录后才可以回帖 登录 | 立即加入

本版积分规则

Archiver|小黑屋| 蓝光电影网 |网站地图

Copyright © 2021 Comsenz Inc. Powered by 蓝光电影网

蓝光电影网

本站内容由用户自主分享和转载自互联网,转载目的在于传递更多信息,并不代表本网赞同其观点和对其真实性负责。

如有侵权、违反国家法律政策行为,请联系我们,我们会第一时间及时清除和处理!

举报反馈邮箱:[email protected]

快速回复 返回顶部 返回列表