找回密码

蓝光电影网

查看: 49|回复: 0

[动作] 宵禁 Curfew.1989.720p.BluRay.x264-YAMG 6.43GB

[复制链接]
蓝光币
886
发表于 2022-8-1 17:41:18 | 显示全部楼层 |阅读模式


◎标  题 宵禁
◎片  名 Curfew
◎年  代 1989
◎产  地 美国
◎类  别 行动 / 可骇
◎语  言 英语
◎上映日期 1989
◎IMDb评分 4.1/10 (498人评价)
◎IMDb链接 https://www.imdb.com/title/tt0097135/
◎豆瓣链接 https://movie.douban.com/subject/5115323/
◎片  长 82 分钟
◎导  演 梅利塔·菲策尔 Melitta Fitzer
◎演  员 约翰·普奇 John Putch
       凯尔·理查兹 Kyle Richards
       佩吉·雷亚 Peggy Rea
       伯特·莱姆森 Bert Remsen
       佩吉·蒲柏 Peggy Pope
       罗伯特·罗农斯 Robert Romanus
       Samuel Braslau Samuel Braslau
       彼得·纳尔逊 Peter Nelson
       尼尔斯·穆勒 Niels Mueller
       温德尔·韦尔曼 Wendell Wellman
       Christopher Knight Christopher Knight
       Rick Hilton Rick Hilton
       Cengiz Yaltkaya Cengiz Yaltkaya
◎简  介

  两名逃走的兄弟找到了判处他们死刑的人,包括一位医生和一位法官。但当他们来到地方检察官和他的家人眼前时,他们心里会有一个出格冗长的复仇计划。
  1. Video
  2. ID                                       : 1
  3. Format                                   : AVC
  4. Format/Info                              : Advanced Video Codec
  5. Format profile                           : [email protected]
  6. Format settings                          : CABAC / 9 Ref Frames
  7. Format settings, CABAC                   : Yes
  8. Format settings, Reference frames        : 9 frames
  9. Codec ID                                 : V_MPEG4/ISO/AVC
  10. Duration                                 : 1 h 25 min
  11. Bit rate                                 : 9 537 kb/s
  12. Width                                    : 1 280 pixels
  13. Height                                   : 690 pixels
  14. Display aspect ratio                     : 1.85:1
  15. Frame rate mode                          : Constant
  16. Frame rate                               : 23.976 (24000/1001/189150) FPS
  17. Color space                              : YUV
  18. Chroma subsampling                       : 4:2:0
  19. Bit depth                                : 8 bits
  20. Scan type                                : Progressive
  21. Bits/(Pixel*Frame)                       : 0.450
  22. Stream size                              : 5.72 GiB (89%)
  23. Writing library                          : x264 core 164 r3094 bfc87b7
  24. Encoding settings                        : cabac=1 / ref=9 / deblock=1:-3:-3 / analyse=0x3:0x133 / me=umh / subme=10 / psy=1 / psy_rd=1.00:0.00 / mixed_ref=1 / me_range=32 / chroma_me=1 / trellis=2 / 8x8dct=1 / cqm=0 / deadzone=21,11 / fast_pskip=0 / chroma_qp_offset=-2 / threads=22 / lookahead_threads=3 / sliced_threads=0 / nr=0 / decimate=0 / interlaced=0 / bluray_compat=0 / constrained_intra=0 / bframes=8 / b_pyramid=2 / b_adapt=2 / b_bias=0 / direct=3 / weightb=1 / open_gop=0 / weightp=2 / keyint=250 / keyint_min=23 / scenecut=40 / intra_refresh=0 / rc=crf / mbtree=0 / crf=18.0 / qcomp=0.60 / qpmin=0 / qpmax=69 / qpstep=4 / ip_ratio=1.40 / pb_ratio=1.30 / aq=3:0.60
  25. Language                                 : English
  26. Default                                  : Yes
  27. Forced                                   : No
  28. Color range                              : Limited
  29. Matrix coefficients                      : BT.709

  30. Audio
  31. ID                                       : 2
  32. Format                                   : FLAC
  33. Format/Info                              : Free Lossless Audio Codec
  34. Codec ID                                 : A_FLAC
  35. Duration                                 : 1 h 25 min
  36. Bit rate mode                            : Variable
  37. Bit rate                                 : 1 180 kb/s
  38. Channel(s)                               : 2 channels
  39. Channel layout                           : L R
  40. Sampling rate                            : 48.0 kHz
  41. Frame rate                               : 11.719 FPS (4096 SPF)
  42. Bit depth                                : 24 bits
  43. Compression mode                         : Lossless
  44. Stream size                              : 725 MiB (11%)
  45. Title                                    : English
  46. Writing library                          : libFLAC 1.3.3 (UTC 2019-08-04)
  47. Language                                 : English
  48. Default                                  : Yes
  49. Forced                                   : No

  50. Text #1
  51. ID                                       : 3
  52. Format                                   : UTF-8
  53. Codec ID                                 : S_TEXT/UTF8
  54. Codec ID/Info                            : UTF-8 Plain Text
  55. Duration                                 : 1 h 20 min
  56. Bit rate                                 : 37 b/s
  57. Count of elements                        : 895
  58. Stream size                              : 22.2 KiB (0%)
  59. Title                                    : English
  60. Language                                 : English
  61. Default                                  : No
  62. Forced                                   : No

  63. Text #2
  64. ID                                       : 4
  65. Format                                   : UTF-8
  66. Codec ID                                 : S_TEXT/UTF8
  67. Codec ID/Info                            : UTF-8 Plain Text
  68. Duration                                 : 1 h 21 min
  69. Bit rate                                 : 48 b/s
  70. Count of elements                        : 1198
  71. Stream size                              : 29.1 KiB (0%)
  72. Title                                    : English SDH
  73. Language                                 : English
  74. Default                                  : No
  75. Forced                                   : No

  76. Text #3
  77. ID                                       : 5
  78. Format                                   : PGS
  79. Muxing mode                              : zlib
  80. Codec ID                                 : S_HDMV/PGS
  81. Codec ID/Info                            : Picture based subtitle format used on BDs/HD-DVDs
  82. Duration                                 : 1 h 22 min
  83. Bit rate                                 : 27.0 kb/s
  84. Count of elements                        : 2397
  85. Stream size                              : 15.9 MiB (0%)
  86. Title                                    : English SDH PGS
  87. Language                                 : English
  88. Default                                  : No
  89. Forced                                   : No

  90. Menu
  91. 00:00:00.000                             : :Chapter 01
  92. 00:21:43.803                             : :Chapter 02
  93. 00:36:54.212                             : :Chapter 03
  94. 00:53:14.692                             : :Chapter 04
  95. 01:12:19.335                             : :Chapter 05
复制代码





                                       
                                       

                                       
                                       
                                       




回复

使用道具 举报

懒得打字嘛,点击右侧快捷回复 【右侧内容,后台自定义】
您需要登录后才可以回帖 登录 | 立即加入

本版积分规则

Archiver|小黑屋| 蓝光电影网 |网站地图

Copyright © 2021 Comsenz Inc. Powered by 蓝光电影网

蓝光电影网

本站内容由用户自主分享和转载自互联网,转载目的在于传递更多信息,并不代表本网赞同其观点和对其真实性负责。

如有侵权、违反国家法律政策行为,请联系我们,我们会第一时间及时清除和处理!

举报反馈邮箱:[email protected]

快速回复 返回顶部 返回列表