找回密码

蓝光电影网

查看: 120|回复: 2

[剧情] 艳舞女郎 Showgirls.1995.REMASTERED.720p.BluRay.x264-YAMG 7.92GB

[复制链接]
蓝光币
886
发表于 2022-8-1 17:47:50 | 显示全部楼层 |阅读模式


◎标  题 艳舞女郎
◎译  名 美国舞娘
◎片  名 Showgirls
◎年  代 1995
◎产  地 法国 / 美国
◎类  别 剧情 / 情色
◎语  言 英语
◎上映日期 1995-09-22
◎IMDb评分 4.9/10 (65706人评价)
◎IMDb链接 https://www.imdb.com/title/tt0114436/
◎豆瓣评分 6.9/10 (10353人评价)
◎豆瓣链接 https://movie.douban.com/subject/1297320/
◎片  长 128分钟
◎导  演 保罗·范霍文 Paul Verhoeven
◎编  剧 乔·埃泽特哈斯 Joe Eszterhas
◎演  员 伊丽莎白·伯克利 Elizabeth Berkley
       凯尔·麦克拉克伦 Kyle MacLachlan
       吉娜·格申 Gina Gershon
       格伦·普拉默 Glenn Plummer
       罗伯特·戴维 Robert Davi
       琳·图齐 Lin Tucci
       Timothy Scott Ralston Timothy Scott Ralston
       阿尔·罗斯西奥 Al Ruscio
       Michael Shure Michael Shure
       Alexander Zale Alexander Zale
       罗伯特·斯莫特 Teo
       凯文·亚历山大·斯蒂亚 Kevin Alexander Stea
       杜威·韦伯 Dewey Weber
       Melissa Williams Melissa Williams
       安东尼·贝克曼 Anthony Backman
       户田惠子 Keiko Toda
       Lindsley Allen Lindsley Allen
       威廉姆·肖克利 William Shockley
       吉娜·拉维拉 Gina Ravera
       Joe Everett Michaels Joe Everett Michaels
       Michelle Johnston Michelle Johnston
       阿兰·拉琴斯 Alan Rachins
       马特·巴特格里亚 Matt Battaglia
       吉姆·怀斯 Jim Wise
       Richard Roraback Richard Roraback
       卡瑞·安·因娜芭 Carrie Ann Inaba
       Rena Riffel Rena Riffel
       杰弗·卡伦 Geoff Callan
       埃里克·里特尔 Eric Ritter
       Kristen Knittle Kristen Knittle
       Amber Herrel Amber Herrel
       米琪杜兰 Micki Duran
       亚历山大·福克 Alexander Folk
       特雷西·迪奥里奥 Tyce Diorio
       Christopher D. Childers Christopher D. Childers
       Ungela Brockman Ungela Brockman
       帕特里克·布利斯托夫 Patrick Bristow
       丽莎·博伊尔 Lisa Boyle
       Bobbie Phillips Bobbie Phillips
       Charles Evans Charles Evans
       Ben Myron Ben Myron
       马里奥·凯萨 Mario Kassar
       Alan Marshall Alan Marshall
       大卫·A·斯图瓦特 David A. Stewart
       约斯特·瓦卡诺 Jost Vacano
       马克·戈德布拉特 Mark Goldblatt
       马克·海尔弗里奇 Mark Helfrich
       乔安娜·雷 Johanna Ray
       Allan Cameron Allan Cameron
       Richard C. Goddard Richard C. Goddard
       艾伦·米罗伊尼克 Ellen Mirojnick
       艾丽西娅·M·特里皮 Alicia M. Tripi
       约翰·布雷克 John Blake
       David Forrest David Forrest
       Marie-Ange Ripka Marie-Ange Ripka
       埃米·劳瑞森 Amy Lauritsen
       萨德·贝尔 Thad Beier
       杰米·迪克森 Jamie Dixon
◎标  签 情色 / 美国 / 歌舞 / 美国电影 / 剧情 / 1995 / 舞蹈 / 电影
◎简  介

  诺密(伊丽莎白·伯克利 Elizabeth Berkley 饰)是一位性感标致的女郎,年轻的她来到拉斯维加斯淘金,希望在这里能找到令她安身的工作。没想到,刚到此地,便被小混混骗走了行李,身无分文的她碰见了化装师克里斯特(吉娜·格申 Gina Gershon 饰),两人一见仍旧结下了深厚的友谊。诺密发现,想在拉斯维加斯获得一个饭碗实在是太难了,酷爱舞蹈的她最初决议加入当地最著名的艳舞团队。经过层层提拔,诺密获得了她的脚色,而一旦起头涉入这个复杂的声色天下中,她沦亡的速度就再也不会停止。原本自负自重的诺密,居然也起头为了向上成长而出售自己的精神。                                    
                                诺密越来越著名,但她和克里斯特的间隔也越来越远。为了填补这段友谊,诺密放置了克里斯特和她的偶像歌手碰头,没想到看似偶像实则禽兽,克里斯特惨遭侮辱住进医院,也击碎了诺密关于名声和金钱的最初的幻觉。
  1. Video
  2. ID                                       : 1
  3. Format                                   : AVC
  4. Format/Info                              : Advanced Video Codec
  5. Format profile                           : [email protected]
  6. Format settings                          : CABAC / 12 Ref Frames
  7. Format settings, CABAC                   : Yes
  8. Format settings, Reference frames        : 12 frames
  9. Codec ID                                 : V_MPEG4/ISO/AVC
  10. Duration                                 : 2 h 11 min
  11. Bit rate                                 : 7 974 kb/s
  12. Width                                    : 1 280 pixels
  13. Height                                   : 544 pixels
  14. Display aspect ratio                     : 2.35:1
  15. Frame rate mode                          : Constant
  16. Frame rate                               : 23.976 (24000/1001/189150) FPS
  17. Color space                              : YUV
  18. Chroma subsampling                       : 4:2:0
  19. Bit depth                                : 8 bits
  20. Scan type                                : Progressive
  21. Bits/(Pixel*Frame)                       : 0.478
  22. Stream size                              : 7.31 GiB (92%)
  23. Writing library                          : x264 core 164 r3094 bfc87b7
  24. Encoding settings                        : cabac=1 / ref=12 / deblock=1:-3:-3 / analyse=0x3:0x133 / me=umh / subme=10 / psy=1 / psy_rd=1.00:0.00 / mixed_ref=1 / me_range=32 / chroma_me=1 / trellis=2 / 8x8dct=1 / cqm=0 / deadzone=21,11 / fast_pskip=0 / chroma_qp_offset=-2 / threads=17 / lookahead_threads=2 / sliced_threads=0 / nr=0 / decimate=0 / interlaced=0 / bluray_compat=0 / constrained_intra=0 / bframes=8 / b_pyramid=2 / b_adapt=2 / b_bias=0 / direct=3 / weightb=1 / open_gop=0 / weightp=2 / keyint=250 / keyint_min=23 / scenecut=40 / intra_refresh=0 / rc=crf / mbtree=0 / crf=17.0 / qcomp=0.60 / qpmin=0 / qpmax=69 / qpstep=4 / ip_ratio=1.40 / pb_ratio=1.30 / aq=3:0.60
  25. Language                                 : English
  26. Default                                  : Yes
  27. Forced                                   : No
  28. Color range                              : Limited
  29. Matrix coefficients                      : BT.709

  30. Audio
  31. ID                                       : 2
  32. Format                                   : AC-3
  33. Format/Info                              : Audio Coding 3
  34. Commercial name                          : Dolby Digital
  35. Codec ID                                 : A_AC3
  36. Duration                                 : 2 h 11 min
  37. Bit rate mode                            : Constant
  38. Bit rate                                 : 640 kb/s
  39. Channel(s)                               : 6 channels
  40. Channel layout                           : L R C LFE Ls Rs
  41. Sampling rate                            : 48.0 kHz
  42. Frame rate                               : 31.250 FPS (1536 SPF)
  43. Compression mode                         : Lossy
  44. Stream size                              : 601 MiB (7%)
  45. Title                                    : English
  46. Language                                 : English
  47. Service kind                             : Complete Main
  48. Default                                  : Yes
  49. Forced                                   : No

  50. Text #1
  51. ID                                       : 3
  52. Format                                   : UTF-8
  53. Codec ID                                 : S_TEXT/UTF8
  54. Codec ID/Info                            : UTF-8 Plain Text
  55. Duration                                 : 2 h 1 min
  56. Bit rate                                 : 47 b/s
  57. Count of elements                        : 1384
  58. Stream size                              : 42.3 KiB (0%)
  59. Title                                    : English
  60. Language                                 : English
  61. Default                                  : No
  62. Forced                                   : No

  63. Text #2
  64. ID                                       : 4
  65. Format                                   : UTF-8
  66. Codec ID                                 : S_TEXT/UTF8
  67. Codec ID/Info                            : UTF-8 Plain Text
  68. Duration                                 : 2 h 2 min
  69. Bit rate                                 : 54 b/s
  70. Count of elements                        : 1394
  71. Stream size                              : 48.5 KiB (0%)
  72. Title                                    : French
  73. Language                                 : French
  74. Default                                  : No
  75. Forced                                   : No

  76. Text #3
  77. ID                                       : 5
  78. Format                                   : PGS
  79. Muxing mode                              : zlib
  80. Codec ID                                 : S_HDMV/PGS
  81. Codec ID/Info                            : Picture based subtitle format used on BDs/HD-DVDs
  82. Duration                                 : 2 h 9 min
  83. Bit rate                                 : 19.5 kb/s
  84. Count of elements                        : 3478
  85. Stream size                              : 18.1 MiB (0%)
  86. Title                                    : Japanese 1
  87. Language                                 : Japanese
  88. Default                                  : No
  89. Forced                                   : No

  90. Text #4
  91. ID                                       : 6
  92. Format                                   : PGS
  93. Muxing mode                              : zlib
  94. Codec ID                                 : S_HDMV/PGS
  95. Codec ID/Info                            : Picture based subtitle format used on BDs/HD-DVDs
  96. Duration                                 : 2 h 9 min
  97. Bit rate                                 : 895 b/s
  98. Count of elements                        : 96
  99. Stream size                              : 851 KiB (0%)
  100. Title                                    : Japanese 2
  101. Language                                 : Japanese
  102. Default                                  : No
  103. Forced                                   : No

  104. Text #5
  105. ID                                       : 7
  106. Format                                   : PGS
  107. Muxing mode                              : zlib
  108. Codec ID                                 : S_HDMV/PGS
  109. Codec ID/Info                            : Picture based subtitle format used on BDs/HD-DVDs
  110. Duration                                 : 2 h 10 min
  111. Bit rate                                 : 31.4 kb/s
  112. Count of elements                        : 4587
  113. Stream size                              : 29.2 MiB (0%)
  114. Title                                    : Japanese 3
  115. Language                                 : Japanese
  116. Default                                  : No
  117. Forced                                   : No

  118. Text #6
  119. ID                                       : 8
  120. Format                                   : PGS
  121. Muxing mode                              : zlib
  122. Codec ID                                 : S_HDMV/PGS
  123. Codec ID/Info                            : Picture based subtitle format used on BDs/HD-DVDs
  124. Duration                                 : 2 h 3 min
  125. Bit rate                                 : 12.6 kb/s
  126. Count of elements                        : 1132
  127. Stream size                              : 11.1 MiB (0%)
  128. Title                                    : Japanese 4
  129. Language                                 : Japanese
  130. Default                                  : No
  131. Forced                                   : No

  132. Menu
  133. 00:00:00.000                             : en:Chapter 01
  134. 00:03:13.151                             : en:Chapter 02
  135. 00:08:04.484                             : en:Chapter 03
  136. 00:12:13.358                             : en:Chapter 04
  137. 00:15:57.290                             : en:Chapter 05
  138. 00:19:35.925                             : en:Chapter 06
  139. 00:22:36.188                             : en:Chapter 07
  140. 00:26:07.649                             : en:Chapter 08
  141. 00:34:02.582                             : en:Chapter 09
  142. 00:36:02.327                             : en:Chapter 10
  143. 00:37:53.188                             : en:Chapter 11
  144. 00:43:48.584                             : en:Chapter 12
  145. 00:49:24.253                             : en:Chapter 13
  146. 00:52:57.049                             : en:Chapter 14
  147. 00:56:24.715                             : en:Chapter 15
  148. 00:58:18.745                             : en:Chapter 16
  149. 01:02:36.336                             : en:Chapter 17
  150. 01:04:42.378                             : en:Chapter 18
  151. 01:11:30.578                             : en:Chapter 19
  152. 01:18:08.934                             : en:Chapter 20
  153. 01:23:00.350                             : en:Chapter 21
  154. 01:29:21.022                             : en:Chapter 22
  155. 01:31:19.307                             : en:Chapter 23
  156. 01:37:17.040                             : en:Chapter 24
  157. 01:38:41.749                             : en:Chapter 25
  158. 01:42:30.478                             : en:Chapter 26
  159. 01:45:27.863                             : en:Chapter 27
  160. 01:46:52.531                             : en:Chapter 28
  161. 01:52:31.119                             : en:Chapter 29
  162. 01:55:39.558                             : en:Chapter 30
  163. 01:58:42.198                             : en:Chapter 31
  164. 02:03:32.071                             : en:Chapter 32
复制代码




                                       
                                       

                                       
                                       
                                       




回复

使用道具 举报

蓝光币
196
发表于 2022-8-1 18:43:57 | 显示全部楼层
不错不错!!!
回复

使用道具 举报

蓝光币
158
发表于 2022-8-2 08:54:59 | 显示全部楼层

这个帖子不回对不起自己!我想我是一天也不能离开蓝光电影网。
回复 支持 反对

使用道具 举报

懒得打字嘛,点击右侧快捷回复 【右侧内容,后台自定义】
您需要登录后才可以回帖 登录 | 立即加入

本版积分规则

Archiver|小黑屋| 蓝光电影网 |网站地图

Copyright © 2021 Comsenz Inc. Powered by 蓝光电影网

蓝光电影网

本站内容由用户自主分享和转载自互联网,转载目的在于传递更多信息,并不代表本网赞同其观点和对其真实性负责。

如有侵权、违反国家法律政策行为,请联系我们,我们会第一时间及时清除和处理!

举报反馈邮箱:[email protected]

快速回复 返回顶部 返回列表