找回密码

蓝光电影网

查看: 43|回复: 0

[剧情] 家族游戏 The.Family.Game.1983.720p.BluRay.x264-YAMG 2.42GB

[复制链接]
蓝光币
886
发表于 2022-8-1 17:46:20 | 显示全部楼层 |阅读模式


◎标  题 家属游戏
◎译  名 The Family Game
◎片  名 家属ゲーム
◎年  代 1983
◎产  地 日本
◎类  别 剧情 / 笑剧
◎语  言 日语
◎上映日期 1983-06-04(日本)
◎IMDb评分 7.2/10 (958人评价)
◎IMDb链接 https://www.imdb.com/title/tt0087545/
◎豆瓣评分 7.7/10 (2511人评价)
◎豆瓣链接 https://movie.douban.com/subject/1305550/
◎片  长 107分钟
◎导  演 森田芳光 Yoshimitsu Morita
◎编  剧 森田芳光 Yoshimitsu Morita
◎演  员 松田优作 Yusaku Matsuda
       伊丹十三 Juzo Itami
       由纪纱织 Saori Yuki
       宫川一朗太 Ichirôta Miyakawa
       鹤田忍 Shinobu Tsuruta
       户川纯 Jun Togawa
       佐藤真弓 Mayumi Satô
       长渊刚 Tsuyoshi Nagabuchi
       辻田順一 Junichi Tsujita
       岡本香了 Kaori Okamoto
       前川麻子 Asako Maekawa
       金子修介 Shusuke Kaneko
       土井浩一郎 Kôichirô Doi
       小林麻子 Asako Kobayashi
       松金米子 Yoneko Matsukane
       白川和子 Kazuko Shirakawa
       加藤善博 Yoshihiro Katô
       阿木燿子 Yôko Aki
       伊藤克信 Katsunobu Ito
       佐佐木史朗 Shirô Sasaki
       前田米造 Yonezô Maeda
       川岛章正 Akimasa Kawashima
       中泽克己 Katsumi Nakazawa
       金子修介 Shusuke Kaneko
◎简  介

  沼田家是一个四口家庭。父亲孝助(伊丹十三 饰)和母亲千贺子(由紀さおり 饰)对两个念书的儿子赐与了殷切希望。宗子慎一(辻田順一 饰)进修勤奋,成功考上了一流的西武高中。这以后一家人又将希望全数依靠在正读初三的次子茂之(宮川一朗太 饰)身上。                                    
                                但是茂之的成就并欠好,接连请了几个家教但见效甚微。正焦虑之时,三流大学的门生吉本胜(松田优作 饰)前来招聘。随着这个有些怪异的家教到来,茂之的成就起头有所进步……                                    
                                按照本间洋平同名小说改编。
  1. Video
  2. ID                                       : 1
  3. Format                                   : AVC
  4. Format/Info                              : Advanced Video Codec
  5. Format profile                           : [email protected]
  6. Format settings                          : CABAC / 12 Ref Frames
  7. Format settings, CABAC                   : Yes
  8. Format settings, Reference frames        : 12 frames
  9. Codec ID                                 : V_MPEG4/ISO/AVC
  10. Duration                                 : 1 h 46 min
  11. Bit rate                                 : 2 981 kb/s
  12. Width                                    : 960 pixels
  13. Height                                   : 720 pixels
  14. Display aspect ratio                     : 4:3
  15. Frame rate mode                          : Constant
  16. Frame rate                               : 23.976 (24000/1001/189150) FPS
  17. Color space                              : YUV
  18. Chroma subsampling                       : 4:2:0
  19. Bit depth                                : 8 bits
  20. Scan type                                : Progressive
  21. Bits/(Pixel*Frame)                       : 0.180
  22. Stream size                              : 2.21 GiB (91%)
  23. Writing library                          : x264 core 164 r3095 baee400
  24. Encoding settings                        : cabac=1 / ref=12 / deblock=1:-3:-3 / analyse=0x3:0x133 / me=umh / subme=10 / psy=1 / psy_rd=1.00:0.00 / mixed_ref=1 / me_range=32 / chroma_me=1 / trellis=2 / 8x8dct=1 / cqm=0 / deadzone=21,11 / fast_pskip=0 / chroma_qp_offset=-2 / threads=22 / lookahead_threads=3 / sliced_threads=0 / nr=0 / decimate=0 / interlaced=0 / bluray_compat=0 / constrained_intra=0 / bframes=8 / b_pyramid=2 / b_adapt=2 / b_bias=0 / direct=3 / weightb=1 / open_gop=0 / weightp=2 / keyint=250 / keyint_min=23 / scenecut=40 / intra_refresh=0 / rc=crf / mbtree=0 / crf=17.0 / qcomp=0.60 / qpmin=0 / qpmax=69 / qpstep=4 / ip_ratio=1.40 / pb_ratio=1.30 / aq=3:0.60
  25. Language                                 : English
  26. Default                                  : Yes
  27. Forced                                   : No
  28. Color range                              : Limited
  29. Matrix coefficients                      : BT.709

  30. Audio
  31. ID                                       : 2
  32. Format                                   : FLAC
  33. Format/Info                              : Free Lossless Audio Codec
  34. Codec ID                                 : A_FLAC
  35. Duration                                 : 1 h 46 min
  36. Bit rate mode                            : Variable
  37. Bit rate                                 : 284 kb/s
  38. Channel(s)                               : 2 channels
  39. Channel layout                           : L R
  40. Sampling rate                            : 48.0 kHz
  41. Frame rate                               : 11.719 FPS (4096 SPF)
  42. Bit depth                                : 16 bits
  43. Compression mode                         : Lossless
  44. Stream size                              : 216 MiB (9%)
  45. Title                                    : Japanese
  46. Writing library                          : libFLAC 1.3.3 (UTC 2019-08-04)
  47. Language                                 : Japanese
  48. Default                                  : Yes
  49. Forced                                   : No

  50. Text
  51. ID                                       : 3
  52. Format                                   : UTF-8
  53. Codec ID                                 : S_TEXT/UTF8
  54. Codec ID/Info                            : UTF-8 Plain Text
  55. Duration                                 : 1 h 45 min
  56. Bit rate                                 : 40 b/s
  57. Count of elements                        : 1037
  58. Stream size                              : 31.1 KiB (0%)
  59. Title                                    : English Forced
  60. Language                                 : English
  61. Default                                  : Yes
  62. Forced                                   : Yes

  63. Menu
  64. 00:00:00.000                             : :Chapter 01
  65. 00:04:29.811                             : :Chapter 02
  66. 00:10:41.599                             : :Chapter 03
  67. 00:15:46.654                             : :Chapter 04
  68. 00:21:07.808                             : :Chapter 05
  69. 00:34:46.209                             : :Chapter 06
  70. 00:43:48.459                             : :Chapter 07
  71. 00:50:54.551                             : :Chapter 08
  72. 00:59:22.476                             : :Chapter 09
  73. 01:07:34.259                             : :Chapter 10
  74. 01:16:25.122                             : :Chapter 11
  75. 01:27:52.767                             : :Chapter 12
  76. 01:38:37.703                             : :Chapter 13
复制代码





                                       
                                       

                                       
                                       
                                       




回复

使用道具 举报

懒得打字嘛,点击右侧快捷回复 【右侧内容,后台自定义】
您需要登录后才可以回帖 登录 | 立即加入

本版积分规则

Archiver|小黑屋| 蓝光电影网 |网站地图

Copyright © 2021 Comsenz Inc. Powered by 蓝光电影网

蓝光电影网

本站内容由用户自主分享和转载自互联网,转载目的在于传递更多信息,并不代表本网赞同其观点和对其真实性负责。

如有侵权、违反国家法律政策行为,请联系我们,我们会第一时间及时清除和处理!

举报反馈邮箱:[email protected]

快速回复 返回顶部 返回列表