找回密码

蓝光电影网

查看: 154|回复: 0

[剧情] 恋爱的温度 Very.Ordinary.Couple.2013.720p.BluRay.x264-YAMG 4.86GB

[复制链接]
蓝光币
1022
发表于 2022-8-1 17:43:40 | 显示全部楼层 |阅读模式


◎标  题 恋爱的温度
◎译  名 分手 / Very Ordinary Couple / Interviewing Him and Her / 헤어지다; 그와 그녀의 인터뷰
◎片  名 연애의 온도
◎年  代 2013
◎产  地 韩国
◎类  别 剧情 / 恋爱
◎语  言 韩语
◎上映日期 2013-03-21(韩国)
◎IMDb评分 6.3/10 (543人评价)
◎IMDb链接 https://www.imdb.com/title/tt3004788/
◎豆瓣评分 7.5/10 (25812人评价)
◎豆瓣链接 https://movie.douban.com/subject/20279443/
◎片  长 112分钟
◎导  演 鲁德 Deok Roh
◎编  剧 鲁德 Deok Roh
◎演  员 李民基 Min-gi Lee
       金敏喜 Min-hee Kim
       罗美兰 Mi-ran Ra
       崔武成 Moo-seong Choi
       申妍淑 Yeon-suk Shin
       文昌吉 Moon Chang-gil
       太仁镐 In-ho Tae
       李益俊 Lee Ik-joon
       李智赫 Lee Ji-hyeok
       朴秉恩 Byung-eun Park
       金姜贤 Gang-Hyun Kim
       夏沇秀 Ha Yeon Soo
       孔浩锡 Ho-seok Kong
       韩在林 Jae-rim Han
       文学真 Hak-jin Moon
◎标  签 恋爱 / 韩国 / 文艺 / 实在 / 温情 / 长大 / 生活 / 剧情
◎简  介

  看似平平的一天,在银行工作的张英(金敏喜 饰)回抵家中大哭了一场,与此同时在同一家银行工作的李东熙(李民基 饰)也在集会中醉酒失态。本来他们是一对奥秘停止办公室爱情的分手情侣,同事们都不晓得他们的关系,两人虽然假装无所谓,但却在各类交集合为难对方。在一次女科长(罗美 兰 饰)为张英做媒的活动中,东熙终究不由得妒忌破坏了张英与男同事的相亲,今后二人的关系公之于众,也上演了各类啼笑皆非的趣事。随着两人都再次寻觅到新欢,二人也起头冰释前嫌,但由于公司的个人出游计划,新的变乱又起头上演了,在搅乱了各类工作生活以后二人又重归于好,而同时女科长与男科长(崔武盛 饰)各自的婚姻关系也发生了新的变化。分手的情侣还能和洽如初吗?恋爱的温度在随时随地发生着变化。
  1. Video
  2. ID                                       : 1
  3. Format                                   : AVC
  4. Format/Info                              : Advanced Video Codec
  5. Format profile                           : [email protected]
  6. Format settings                          : CABAC / 12 Ref Frames
  7. Format settings, CABAC                   : Yes
  8. Format settings, Reference frames        : 12 frames
  9. Codec ID                                 : V_MPEG4/ISO/AVC
  10. Duration                                 : 1 h 52 min
  11. Bit rate                                 : 5 501 kb/s
  12. Width                                    : 1 280 pixels
  13. Height                                   : 536 pixels
  14. Display aspect ratio                     : 2.40:1
  15. Frame rate mode                          : Constant
  16. Frame rate                               : 23.976 (24000/1001/189150) FPS
  17. Color space                              : YUV
  18. Chroma subsampling                       : 4:2:0
  19. Bit depth                                : 8 bits
  20. Scan type                                : Progressive
  21. Bits/(Pixel*Frame)                       : 0.334
  22. Stream size                              : 4.33 GiB (89%)
  23. Writing library                          : x264 core 164 r3095 baee400
  24. Encoding settings                        : cabac=1 / ref=12 / deblock=1:-3:-3 / analyse=0x3:0x133 / me=umh / subme=10 / psy=1 / psy_rd=1.00:0.00 / mixed_ref=1 / me_range=32 / chroma_me=1 / trellis=2 / 8x8dct=1 / cqm=0 / deadzone=21,11 / fast_pskip=0 / chroma_qp_offset=-2 / threads=17 / lookahead_threads=2 / sliced_threads=0 / nr=0 / decimate=0 / interlaced=0 / bluray_compat=0 / constrained_intra=0 / bframes=8 / b_pyramid=2 / b_adapt=2 / b_bias=0 / direct=3 / weightb=1 / open_gop=0 / weightp=2 / keyint=250 / keyint_min=23 / scenecut=40 / intra_refresh=0 / rc=crf / mbtree=0 / crf=17.0 / qcomp=0.60 / qpmin=0 / qpmax=69 / qpstep=4 / ip_ratio=1.40 / pb_ratio=1.30 / aq=3:0.60
  25. Default                                  : Yes
  26. Forced                                   : No
  27. Color range                              : Limited
  28. Matrix coefficients                      : BT.709

  29. Audio
  30. ID                                       : 2
  31. Format                                   : AC-3
  32. Format/Info                              : Audio Coding 3
  33. Commercial name                          : Dolby Digital
  34. Codec ID                                 : A_AC3
  35. Duration                                 : 1 h 52 min
  36. Bit rate mode                            : Constant
  37. Bit rate                                 : 640 kb/s
  38. Channel(s)                               : 6 channels
  39. Channel layout                           : L R C LFE Ls Rs
  40. Sampling rate                            : 48.0 kHz
  41. Frame rate                               : 31.250 FPS (1536 SPF)
  42. Compression mode                         : Lossy
  43. Stream size                              : 514 MiB (10%)
  44. Title                                    : Korean
  45. Language                                 : Korean
  46. Service kind                             : Complete Main
  47. Default                                  : Yes
  48. Forced                                   : No

  49. Text #1
  50. ID                                       : 3
  51. Format                                   : UTF-8
  52. Codec ID                                 : S_TEXT/UTF8
  53. Codec ID/Info                            : UTF-8 Plain Text
  54. Duration                                 : 1 h 46 min
  55. Bit rate                                 : 41 b/s
  56. Count of elements                        : 1517
  57. Stream size                              : 32.2 KiB (0%)
  58. Title                                    : English Forced
  59. Language                                 : English
  60. Default                                  : Yes
  61. Forced                                   : Yes

  62. Text #2
  63. ID                                       : 4
  64. Format                                   : PGS
  65. Muxing mode                              : zlib
  66. Codec ID                                 : S_HDMV/PGS
  67. Codec ID/Info                            : Picture based subtitle format used on BDs/HD-DVDs
  68. Duration                                 : 1 h 46 min
  69. Bit rate                                 : 32.7 kb/s
  70. Count of elements                        : 2977
  71. Stream size                              : 25.0 MiB (1%)
  72. Title                                    : English Forced PGS
  73. Language                                 : English
  74. Default                                  : No
  75. Forced                                   : No

  76. Text #3
  77. ID                                       : 5
  78. Format                                   : PGS
  79. Muxing mode                              : zlib
  80. Codec ID                                 : S_HDMV/PGS
  81. Codec ID/Info                            : Picture based subtitle format used on BDs/HD-DVDs
  82. Duration                                 : 1 h 46 min
  83. Bit rate                                 : 41.2 kb/s
  84. Count of elements                        : 2972
  85. Stream size                              : 31.5 MiB (1%)
  86. Title                                    : Korean PGS
  87. Language                                 : Korean
  88. Default                                  : No
  89. Forced                                   : No

  90. Menu
  91. 00:00:00.000                             : :Chapter 01
  92. 00:11:15.592                             : :Chapter 02
  93. 00:20:31.230                             : :Chapter 03
  94. 00:30:46.845                             : :Chapter 04
  95. 00:40:48.154                             : :Chapter 05
  96. 00:51:48.689                             : :Chapter 06
  97. 01:01:53.585                             : :Chapter 07
  98. 01:11:32.330                             : :Chapter 08
  99. 01:21:51.698                             : :Chapter 09
  100. 01:31:32.028                             : :Chapter 10
  101. 01:43:16.690                             : :Chapter 11
  102. 01:48:22.246                             : :Chapter 12
复制代码




                                       
                                       

                                       
                                       
                                       




回复

使用道具 举报

懒得打字嘛,点击右侧快捷回复 【右侧内容,后台自定义】
您需要登录后才可以回帖 登录 | 立即加入

本版积分规则

Archiver|小黑屋| 蓝光电影网 |网站地图

Copyright © 2021 Comsenz Inc. Powered by 蓝光电影网

蓝光电影网

本站内容由用户自主分享和转载自互联网,转载目的在于传递更多信息,并不代表本网赞同其观点和对其真实性负责。

如有侵权、违反国家法律政策行为,请联系我们,我们会第一时间及时清除和处理!

举报反馈邮箱:[email protected]

快速回复 返回顶部 返回列表