找回密码

蓝光电影网

查看: 44|回复: 0

[剧情] 硬汉不跳舞 Tough.Guys.Dont.Dance.1987.1080p.BluRay.x264-YAMG 15.52GB

[复制链接]
蓝光币
886
发表于 2022-8-1 18:15:52 | 显示全部楼层 |阅读模式


◎标  题 硬汉不舞蹈
◎译  名 夺命迷情
◎片  名 Tough Guys Don't Dance
◎年  代 1987
◎产  地 美国
◎类  别 剧情 / 笑剧 / 悬疑 / 惊悚 / 犯罪
◎语  言 英语
◎上映日期 1987-09-12
◎IMDb评分 4.8/10 (1482人评价)
◎IMDb链接 https://www.imdb.com/title/tt0094169/
◎豆瓣链接 https://movie.douban.com/subject/3089288/
◎片  长 110 分钟
◎导  演 诺曼·梅勒 Norman Mailer
◎编  剧 诺曼·梅勒 Norman Mailer
       罗伯特·汤 Robert Towne
◎演  员 瑞安·奥尼尔 Ryan O'Neal
       伊莎贝拉·罗西里尼 Isabella Rossellini
       约翰·贝德福德·劳埃德 John Bedford Lloyd
       弗朗西斯·福特·科波拉 Francis Ford Coppola
       Yoram Globus Yoram Globus
       迈克尔·卡普兰 Michael Kaplan
       Moni Mansano Moni Mansano
◎标  签 美国 / 夺命迷情 / SonychenReviews / 犯罪 / 悬疑 / 笑剧 / 产地/美国 / thriller
◎简  介

  Tim Madden宿醉醒來後,卻發現他的車上有血跡,而且還有屍塊在家中,完全不記得這些工作怎麼發生的Tim Madden,還遭被收買的警方監視他的一舉一動,難道他真的是兇手??
  1. Video
  2. ID                                       : 1
  3. Format                                   : AVC
  4. Format/Info                              : Advanced Video Codec
  5. Format profile                           : [email protected]
  6. Format settings                          : CABAC / 4 Ref Frames
  7. Format settings, CABAC                   : Yes
  8. Format settings, Reference frames        : 4 frames
  9. Codec ID                                 : V_MPEG4/ISO/AVC
  10. Duration                                 : 1 h 49 min
  11. Bit rate                                 : 18.7 Mb/s
  12. Width                                    : 1 916 pixels
  13. Height                                   : 1 036 pixels
  14. Display aspect ratio                     : 1.85:1
  15. Frame rate mode                          : Constant
  16. Frame rate                               : 23.976 (24000/1001/189150) FPS
  17. Color space                              : YUV
  18. Chroma subsampling                       : 4:2:0
  19. Bit depth                                : 8 bits
  20. Scan type                                : Progressive
  21. Bits/(Pixel*Frame)                       : 0.392
  22. Stream size                              : 14.3 GiB (92%)
  23. Writing library                          : x264 core 164 r3075 66a5bc1
  24. Encoding settings                        : cabac=1 / ref=4 / deblock=1:-3:-3 / analyse=0x3:0x133 / me=umh / subme=10 / psy=1 / psy_rd=1.00:0.00 / mixed_ref=1 / me_range=32 / chroma_me=1 / trellis=2 / 8x8dct=1 / cqm=0 / deadzone=21,11 / fast_pskip=0 / chroma_qp_offset=-2 / threads=24 / lookahead_threads=4 / sliced_threads=0 / nr=0 / decimate=0 / interlaced=0 / bluray_compat=0 / constrained_intra=0 / bframes=8 / b_pyramid=2 / b_adapt=2 / b_bias=0 / direct=3 / weightb=1 / open_gop=0 / weightp=2 / keyint=250 / keyint_min=23 / scenecut=40 / intra_refresh=0 / rc=crf / mbtree=0 / crf=17.0 / qcomp=0.60 / qpmin=0 / qpmax=69 / qpstep=4 / ip_ratio=1.40 / pb_ratio=1.30 / aq=3:0.60
  25. Language                                 : English
  26. Default                                  : Yes
  27. Forced                                   : No
  28. Color range                              : Limited
  29. Matrix coefficients                      : BT.709

  30. Audio #1
  31. ID                                       : 2
  32. Format                                   : FLAC
  33. Format/Info                              : Free Lossless Audio Codec
  34. Codec ID                                 : A_FLAC
  35. Duration                                 : 1 h 49 min
  36. Bit rate mode                            : Variable
  37. Bit rate                                 : 1 517 kb/s
  38. Channel(s)                               : 2 channels
  39. Channel layout                           : L R
  40. Sampling rate                            : 48.0 kHz
  41. Frame rate                               : 11.719 FPS (4096 SPF)
  42. Bit depth                                : 24 bits
  43. Compression mode                         : Lossless
  44. Stream size                              : 1.16 GiB (7%)
  45. Title                                    : English
  46. Writing library                          : libFLAC 1.3.3 (UTC 2019-08-04)
  47. Language                                 : English
  48. Default                                  : Yes
  49. Forced                                   : No

  50. Audio #2
  51. ID                                       : 3
  52. Format                                   : AAC LC
  53. Format/Info                              : Advanced Audio Codec Low Complexity
  54. Codec ID                                 : A_AAC-2
  55. Duration                                 : 1 h 49 min
  56. Bit rate                                 : 86.3 kb/s
  57. Channel(s)                               : 2 channels
  58. Channel layout                           : L R
  59. Sampling rate                            : 48.0 kHz
  60. Frame rate                               : 46.875 FPS (1024 SPF)
  61. Compression mode                         : Lossy
  62. Delay relative to video                  : 20 ms
  63. Stream size                              : 67.6 MiB (0%)
  64. Title                                    : Commentary Track with Historian Justin Bozung
  65. Language                                 : English
  66. Default                                  : No
  67. Forced                                   : No

  68. Text #1
  69. ID                                       : 4
  70. Format                                   : UTF-8
  71. Codec ID                                 : S_TEXT/UTF8
  72. Codec ID/Info                            : UTF-8 Plain Text
  73. Duration                                 : 1 h 48 min
  74. Bit rate                                 : 51 b/s
  75. Count of elements                        : 1436
  76. Stream size                              : 40.9 KiB (0%)
  77. Title                                    : English
  78. Language                                 : English
  79. Default                                  : No
  80. Forced                                   : No

  81. Text #2
  82. ID                                       : 5
  83. Format                                   : UTF-8
  84. Codec ID                                 : S_TEXT/UTF8
  85. Codec ID/Info                            : UTF-8 Plain Text
  86. Duration                                 : 1 h 49 min
  87. Bit rate                                 : 54 b/s
  88. Count of elements                        : 1553
  89. Stream size                              : 43.5 KiB (0%)
  90. Title                                    : English SDH
  91. Language                                 : English
  92. Default                                  : No
  93. Forced                                   : No

  94. Text #3
  95. ID                                       : 6
  96. Format                                   : PGS
  97. Muxing mode                              : zlib
  98. Codec ID                                 : S_HDMV/PGS
  99. Codec ID/Info                            : Picture based subtitle format used on BDs/HD-DVDs
  100. Duration                                 : 1 h 49 min
  101. Bit rate                                 : 23.4 kb/s
  102. Count of elements                        : 3107
  103. Stream size                              : 18.3 MiB (0%)
  104. Title                                    : English SDH PGS
  105. Language                                 : English
  106. Default                                  : No
  107. Forced                                   : No

  108. Menu
  109. 00:00:00.000                             : en:Chapter 01
  110. 00:21:53.813                             : en:Chapter 02
  111. 00:40:54.953                             : en:Chapter 03
  112. 00:59:32.069                             : en:Chapter 04
  113. 01:19:23.759                             : en:Chapter 05
  114. 01:38:44.419                             : en:Chapter 06
复制代码





                                       
                                       

                                       
                                       
                                       




回复

使用道具 举报

懒得打字嘛,点击右侧快捷回复 【右侧内容,后台自定义】
您需要登录后才可以回帖 登录 | 立即加入

本版积分规则

Archiver|小黑屋| 蓝光电影网 |网站地图

Copyright © 2021 Comsenz Inc. Powered by 蓝光电影网

蓝光电影网

本站内容由用户自主分享和转载自互联网,转载目的在于传递更多信息,并不代表本网赞同其观点和对其真实性负责。

如有侵权、违反国家法律政策行为,请联系我们,我们会第一时间及时清除和处理!

举报反馈邮箱:[email protected]

快速回复 返回顶部 返回列表