找回密码

蓝光电影网

查看: 121|回复: 0

[剧情] 蛮女天堂 Bird.of.Paradise.1932.iNTERNAL.1080p.BluRay.x264-YAMG 8.18GB

[复制链接]
蓝光币
1020
发表于 2022-8-1 17:49:20 | 显示全部楼层 |阅读模式


◎标  题 蛮女天堂
◎片  名 Bird of Paradise
◎年  代 1932
◎产  地 美国
◎类  别 剧情 / 恋爱 / 冒险
◎语  言 英语
◎上映日期 1932
◎IMDb评分 6/10 (1258人评价)
◎IMDb链接 https://www.imdb.com/title/tt0022689/
◎豆瓣链接 https://movie.douban.com/subject/4260679/
◎片  长 80 分钟 / USA: 82 分钟(FMC Library Print)
◎导  演 金·维多 King Vidor
◎编  剧 理查德·沃尔顿·塔利 Richard Walton Tully
       韦尔斯·鲁特 Wells Root
       万达·图乔克 Wanda Tuchock
       伦纳德·普拉斯金斯 Leonard Praskins
◎演  员 朵乐丝·德里奥 Dolores del Rio
       Arnold Gray Arnold Gray
       Richard 'Skeets' Gallagher Richard 'Skeets' Gallagher
       韦德·博特勒 Wade Boteler
       Agostino Borgato Agostino Borgato
       小朗·钱尼 Lon Chaney Jr.
       伯特·罗奇 Bert Roach
       约翰·哈利戴 John Halliday
       乔尔·麦克雷 Joel McCrea
◎标  签 老片 / 美国 / King_Vidor / 默片 / 电影 / 1920s / 黑白 / 暂存
◎简  介

    A native girl falls for a visitor to her island, but she's chosen to be sacrificed to the volcano god.
  1. Video
  2. ID                                       : 1
  3. Format                                   : AVC
  4. Format/Info                              : Advanced Video Codec
  5. Format profile                           : [email protected]
  6. Format settings                          : CABAC / 5 Ref Frames
  7. Format settings, CABAC                   : Yes
  8. Format settings, Reference frames        : 5 frames
  9. Codec ID                                 : V_MPEG4/ISO/AVC
  10. Duration                                 : 1 h 22 min
  11. Bit rate                                 : 12.9 Mb/s
  12. Width                                    : 1 440 pixels
  13. Height                                   : 1 078 pixels
  14. Display aspect ratio                     : 4:3
  15. Frame rate mode                          : Constant
  16. Frame rate                               : 23.976 (24000/1001/189150) FPS
  17. Color space                              : YUV
  18. Chroma subsampling                       : 4:2:0
  19. Bit depth                                : 8 bits
  20. Scan type                                : Progressive
  21. Bits/(Pixel*Frame)                       : 0.347
  22. Stream size                              : 7.40 GiB (90%)
  23. Writing library                          : x264 core 164 r3094 bfc87b7
  24. Encoding settings                        : cabac=1 / ref=5 / deblock=1:-3:-3 / analyse=0x3:0x133 / me=umh / subme=10 / psy=1 / psy_rd=1.00:0.00 / mixed_ref=1 / me_range=32 / chroma_me=1 / trellis=2 / 8x8dct=1 / cqm=0 / deadzone=21,11 / fast_pskip=0 / chroma_qp_offset=-2 / threads=24 / lookahead_threads=4 / sliced_threads=0 / nr=0 / decimate=0 / interlaced=0 / bluray_compat=0 / constrained_intra=0 / bframes=8 / b_pyramid=2 / b_adapt=2 / b_bias=0 / direct=3 / weightb=1 / open_gop=0 / weightp=2 / keyint=250 / keyint_min=23 / scenecut=40 / intra_refresh=0 / rc=crf / mbtree=0 / crf=17.0 / qcomp=0.60 / qpmin=0 / qpmax=69 / qpstep=4 / ip_ratio=1.40 / pb_ratio=1.30 / aq=3:0.60
  25. Language                                 : English
  26. Default                                  : Yes
  27. Forced                                   : No
  28. Color range                              : Limited
  29. Matrix coefficients                      : BT.709

  30. Audio
  31. ID                                       : 2
  32. Format                                   : FLAC
  33. Format/Info                              : Free Lossless Audio Codec
  34. Codec ID                                 : A_FLAC
  35. Duration                                 : 1 h 22 min
  36. Bit rate mode                            : Variable
  37. Bit rate                                 : 1 357 kb/s
  38. Channel(s)                               : 2 channels
  39. Channel layout                           : L R
  40. Sampling rate                            : 48.0 kHz
  41. Frame rate                               : 11.719 FPS (4096 SPF)
  42. Bit depth                                : 24 bits
  43. Compression mode                         : Lossless
  44. Stream size                              : 797 MiB (10%)
  45. Title                                    : English
  46. Writing library                          : libFLAC 1.3.3 (UTC 2019-08-04)
  47. Language                                 : English
  48. Default                                  : Yes
  49. Forced                                   : No

  50. Menu
  51. 00:00:00.000                             : en:Chapter 01
  52. 00:07:35.205                             : en:Chapter 02
  53. 00:16:11.971                             : en:Chapter 03
  54. 00:24:17.456                             : en:Chapter 04
  55. 00:29:12.167                             : en:Chapter 05
  56. 00:42:05.356                             : en:Chapter 06
  57. 00:49:24.628                             : en:Chapter 07
  58. 00:54:58.754                             : en:Chapter 08
  59. 01:04:21.566                             : en:Chapter 09
  60. 01:13:11.804                             : en:Chapter 10
复制代码





                                       
                                       

                                       
                                       
                                       




回复

使用道具 举报

懒得打字嘛,点击右侧快捷回复 【右侧内容,后台自定义】
您需要登录后才可以回帖 登录 | 立即加入

本版积分规则

Archiver|小黑屋| 蓝光电影网 |网站地图

Copyright © 2021 Comsenz Inc. Powered by 蓝光电影网

蓝光电影网

本站内容由用户自主分享和转载自互联网,转载目的在于传递更多信息,并不代表本网赞同其观点和对其真实性负责。

如有侵权、违反国家法律政策行为,请联系我们,我们会第一时间及时清除和处理!

举报反馈邮箱:[email protected]

快速回复 返回顶部 返回列表