找回密码

蓝光电影网

查看: 43|回复: 0

[剧情] 恋爱的温度 Very.Ordinary.Couple.2013.1080p.BluRay.x264-YAMG 14.62GB

[复制链接]
蓝光币
886
发表于 2022-8-1 17:42:24 | 显示全部楼层 |阅读模式


◎标  题 恋爱的温度
◎译  名 分手 / Very Ordinary Couple / Interviewing Him and Her / 헤어지다; 그와 그녀의 인터뷰
◎片  名 연애의 온도
◎年  代 2013
◎产  地 韩国
◎类  别 剧情 / 恋爱
◎语  言 韩语
◎上映日期 2013-03-21(韩国)
◎IMDb评分 6.3/10 (543人评价)
◎IMDb链接 https://www.imdb.com/title/tt3004788/
◎豆瓣评分 7.5/10 (25812人评价)
◎豆瓣链接 https://movie.douban.com/subject/20279443/
◎片  长 112分钟
◎导  演 鲁德 Deok Roh
◎编  剧 鲁德 Deok Roh
◎演  员 李民基 Min-gi Lee
       金敏喜 Min-hee Kim
       罗美兰 Mi-ran Ra
       崔武成 Moo-seong Choi
       申妍淑 Yeon-suk Shin
       文昌吉 Moon Chang-gil
       太仁镐 In-ho Tae
       李益俊 Lee Ik-joon
       李智赫 Lee Ji-hyeok
       朴秉恩 Byung-eun Park
       金姜贤 Gang-Hyun Kim
       夏沇秀 Ha Yeon Soo
       孔浩锡 Ho-seok Kong
       韩在林 Jae-rim Han
       文学真 Hak-jin Moon
◎标  签 恋爱 / 韩国 / 文艺 / 实在 / 温情 / 长大 / 生活 / 剧情
◎简  介

  看似平平的一天,在银行工作的张英(金敏喜 饰)回抵家中大哭了一场,与此同时在同一家银行工作的李东熙(李民基 饰)也在集会中醉酒失态。本来他们是一对奥秘停止办公室爱情的分手情侣,同事们都不晓得他们的关系,两人虽然假装无所谓,但却在各类交集合为难对方。在一次女科长(罗美 兰 饰)为张英做媒的活动中,东熙终究不由得妒忌破坏了张英与男同事的相亲,今后二人的关系公之于众,也上演了各类啼笑皆非的趣事。随着两人都再次寻觅到新欢,二人也起头冰释前嫌,但由于公司的个人出游计划,新的变乱又起头上演了,在搅乱了各类工作生活以后二人又重归于好,而同时女科长与男科长(崔武盛 饰)各自的婚姻关系也发生了新的变化。分手的情侣还能和洽如初吗?恋爱的温度在随时随地发生着变化。
  1. Video
  2. ID                                       : 1
  3. Format                                   : AVC
  4. Format/Info                              : Advanced Video Codec
  5. Format profile                           : [email protected]
  6. Format settings                          : CABAC / 5 Ref Frames
  7. Format settings, CABAC                   : Yes
  8. Format settings, Reference frames        : 5 frames
  9. Codec ID                                 : V_MPEG4/ISO/AVC
  10. Duration                                 : 1 h 52 min
  11. Bit rate                                 : 15.9 Mb/s
  12. Width                                    : 1 916 pixels
  13. Height                                   : 804 pixels
  14. Display aspect ratio                     : 2.40:1
  15. Frame rate mode                          : Constant
  16. Frame rate                               : 23.976 (24000/1001/189150) FPS
  17. Color space                              : YUV
  18. Chroma subsampling                       : 4:2:0
  19. Bit depth                                : 8 bits
  20. Scan type                                : Progressive
  21. Bits/(Pixel*Frame)                       : 0.431
  22. Stream size                              : 12.5 GiB (86%)
  23. Writing library                          : x264 core 164 r3095 baee400
  24. Encoding settings                        : cabac=1 / ref=5 / deblock=1:-3:-3 / analyse=0x3:0x133 / me=umh / subme=10 / psy=1 / psy_rd=1.00:0.00 / mixed_ref=1 / me_range=32 / chroma_me=1 / trellis=2 / 8x8dct=1 / cqm=0 / deadzone=21,11 / fast_pskip=0 / chroma_qp_offset=-2 / threads=24 / lookahead_threads=4 / sliced_threads=0 / nr=0 / decimate=0 / interlaced=0 / bluray_compat=0 / constrained_intra=0 / bframes=8 / b_pyramid=2 / b_adapt=2 / b_bias=0 / direct=3 / weightb=1 / open_gop=0 / weightp=2 / keyint=250 / keyint_min=23 / scenecut=40 / intra_refresh=0 / rc=crf / mbtree=0 / crf=17.0 / qcomp=0.60 / qpmin=0 / qpmax=69 / qpstep=4 / ip_ratio=1.40 / pb_ratio=1.30 / aq=3:0.60
  25. Language                                 : English
  26. Default                                  : Yes
  27. Forced                                   : No
  28. Color range                              : Limited
  29. Matrix coefficients                      : BT.709

  30. Audio
  31. ID                                       : 2
  32. Format                                   : DTS XLL
  33. Format/Info                              : Digital Theater Systems
  34. Commercial name                          : DTS-HD Master Audio
  35. Codec ID                                 : A_DTS
  36. Duration                                 : 1 h 52 min
  37. Bit rate mode                            : Variable
  38. Bit rate                                 : 2 637 kb/s
  39. Channel(s)                               : 6 channels
  40. Channel layout                           : C L R Ls Rs LFE
  41. Sampling rate                            : 48.0 kHz
  42. Frame rate                               : 93.750 FPS (512 SPF)
  43. Bit depth                                : 16 bits
  44. Compression mode                         : Lossless
  45. Stream size                              : 2.07 GiB (14%)
  46. Title                                    : Korean
  47. Language                                 : Korean
  48. Default                                  : Yes
  49. Forced                                   : No

  50. Text #1
  51. ID                                       : 3
  52. Format                                   : UTF-8
  53. Codec ID                                 : S_TEXT/UTF8
  54. Codec ID/Info                            : UTF-8 Plain Text
  55. Duration                                 : 1 h 46 min
  56. Bit rate                                 : 41 b/s
  57. Count of elements                        : 1517
  58. Stream size                              : 32.2 KiB (0%)
  59. Title                                    : English Forced
  60. Language                                 : English
  61. Default                                  : Yes
  62. Forced                                   : Yes

  63. Text #2
  64. ID                                       : 4
  65. Format                                   : PGS
  66. Muxing mode                              : zlib
  67. Codec ID                                 : S_HDMV/PGS
  68. Codec ID/Info                            : Picture based subtitle format used on BDs/HD-DVDs
  69. Duration                                 : 1 h 46 min
  70. Bit rate                                 : 32.7 kb/s
  71. Count of elements                        : 2977
  72. Stream size                              : 25.0 MiB (0%)
  73. Title                                    : English Forced PGS
  74. Language                                 : English
  75. Default                                  : No
  76. Forced                                   : No

  77. Text #3
  78. ID                                       : 5
  79. Format                                   : PGS
  80. Muxing mode                              : zlib
  81. Codec ID                                 : S_HDMV/PGS
  82. Codec ID/Info                            : Picture based subtitle format used on BDs/HD-DVDs
  83. Duration                                 : 1 h 46 min
  84. Bit rate                                 : 41.2 kb/s
  85. Count of elements                        : 2972
  86. Stream size                              : 31.5 MiB (0%)
  87. Title                                    : Korean PGS
  88. Language                                 : Korean
  89. Default                                  : No
  90. Forced                                   : No

  91. Menu
  92. 00:00:00.000                             : :Chapter 01
  93. 00:11:15.592                             : :Chapter 02
  94. 00:20:31.230                             : :Chapter 03
  95. 00:30:46.845                             : :Chapter 04
  96. 00:40:48.154                             : :Chapter 05
  97. 00:51:48.689                             : :Chapter 06
  98. 01:01:53.585                             : :Chapter 07
  99. 01:11:32.330                             : :Chapter 08
  100. 01:21:51.698                             : :Chapter 09
  101. 01:31:32.028                             : :Chapter 10
  102. 01:43:16.690                             : :Chapter 11
  103. 01:48:22.246                             : :Chapter 12
复制代码





                                       
                                       

                                       
                                       
                                       




回复

使用道具 举报

懒得打字嘛,点击右侧快捷回复 【右侧内容,后台自定义】
您需要登录后才可以回帖 登录 | 立即加入

本版积分规则

Archiver|小黑屋| 蓝光电影网 |网站地图

Copyright © 2021 Comsenz Inc. Powered by 蓝光电影网

蓝光电影网

本站内容由用户自主分享和转载自互联网,转载目的在于传递更多信息,并不代表本网赞同其观点和对其真实性负责。

如有侵权、违反国家法律政策行为,请联系我们,我们会第一时间及时清除和处理!

举报反馈邮箱:[email protected]

快速回复 返回顶部 返回列表