找回密码

蓝光电影网

查看: 30|回复: 0

[剧情] 电话索命 Are.You.in.the.House.Alone.1978.1080p.BluRay.x264-YAMG 10.60GB

[复制链接]
蓝光币
886
发表于 2022-8-1 17:35:18 | 显示全部楼层 |阅读模式


◎标  题 电话索命
◎片  名 Are You in the House Alone?
◎年  代 1978
◎产  地 美国
◎类  别 剧情 / 惊悚 / 可骇
◎语  言 英语
◎上映日期 1978-09-20
◎IMDb评分 5.6/10 (1172人评价)
◎IMDb链接 https://www.imdb.com/title/tt0077174/
◎豆瓣链接 https://movie.douban.com/subject/3348580/
◎片  长 96分钟
◎导  演 沃尔特·杰拉曼 Walter Grauman
◎编  剧 Judith Parker Judith Parker
◎演  员 特里西娅·奥尼尔 Tricia O'Neil
       Ellen Travolta Ellen Travolta
       Randy Stumpf Randy Stumpf
       布莱思·丹纳 Blythe Danner
       罗宾·麦蒂森 Robin Mattson
       大卫·利昂 David Leon
       托尼·比尔 Tony Bill
       凯瑟琳·贝勒 Kathleen Beller
       Lois Hamilton Lois Hamilton
       Scott Colomby Scott Colomby
       阿兰·弗吉 Alan Fudge
       桑德拉·贾尔斯 Sandra Giles
       泰德·格林 Ted Gehring
       Magda Harout Magda Harout
       Art Kimbro Art Kimbro
       丹尼斯·奎德 Dennis Quaid
       Allan Marcil Allan Marcil
       Jay Benson Jay Benson
       Richard Berg Richard Berg
       Charles Bernstein Charles Bernstein
       Judith Holstra Judith Holstra
       Mary Ann Good Mary Ann Good
       Jim Kail Jim Kail
◎简  介

  Teenage girl is plagued by harassing phone calls. Her fear mounts when she's babysitting at a neighbor's...
  1. Video
  2. ID                                       : 1
  3. Format                                   : AVC
  4. Format/Info                              : Advanced Video Codec
  5. Format profile                           : [email protected]
  6. Format settings                          : CABAC / 5 Ref Frames
  7. Format settings, CABAC                   : Yes
  8. Format settings, Reference frames        : 5 frames
  9. Codec ID                                 : V_MPEG4/ISO/AVC
  10. Duration                                 : 1 h 36 min
  11. Bit rate                                 : 15.0 Mb/s
  12. Width                                    : 1 440 pixels
  13. Height                                   : 1 080 pixels
  14. Display aspect ratio                     : 4:3
  15. Frame rate mode                          : Constant
  16. Frame rate                               : 23.976 (24000/1001/189150) FPS
  17. Color space                              : YUV
  18. Chroma subsampling                       : 4:2:0
  19. Bit depth                                : 8 bits
  20. Scan type                                : Progressive
  21. Bits/(Pixel*Frame)                       : 0.403
  22. Stream size                              : 10.1 GiB (96%)
  23. Writing library                          : x264 core 164 r3081 19856cc
  24. Encoding settings                        : cabac=1 / ref=5 / deblock=1:-3:-3 / analyse=0x3:0x133 / me=umh / subme=10 / psy=1 / psy_rd=1.00:0.00 / mixed_ref=1 / me_range=32 / chroma_me=1 / trellis=2 / 8x8dct=1 / cqm=0 / deadzone=21,11 / fast_pskip=0 / chroma_qp_offset=-2 / threads=24 / lookahead_threads=4 / sliced_threads=0 / nr=0 / decimate=0 / interlaced=0 / bluray_compat=0 / constrained_intra=0 / bframes=8 / b_pyramid=2 / b_adapt=2 / b_bias=0 / direct=3 / weightb=1 / open_gop=0 / weightp=2 / keyint=250 / keyint_min=23 / scenecut=40 / intra_refresh=0 / rc=crf / mbtree=0 / crf=19.0 / qcomp=0.60 / qpmin=0 / qpmax=69 / qpstep=4 / ip_ratio=1.40 / pb_ratio=1.30 / aq=3:0.60
  25. Language                                 : English
  26. Default                                  : Yes
  27. Forced                                   : No
  28. Color range                              : Limited
  29. Matrix coefficients                      : BT.709

  30. Audio
  31. ID                                       : 2
  32. Format                                   : FLAC
  33. Format/Info                              : Free Lossless Audio Codec
  34. Codec ID                                 : A_FLAC
  35. Duration                                 : 1 h 36 min
  36. Bit rate mode                            : Variable
  37. Bit rate                                 : 667 kb/s
  38. Channel(s)                               : 1 channel
  39. Channel layout                           : C
  40. Sampling rate                            : 48.0 kHz
  41. Frame rate                               : 11.719 FPS (4096 SPF)
  42. Bit depth                                : 24 bits
  43. Compression mode                         : Lossless
  44. Stream size                              : 461 MiB (4%)
  45. Title                                    : English
  46. Writing library                          : libFLAC 1.3.3 (UTC 2019-08-04)
  47. Language                                 : English
  48. Default                                  : Yes
  49. Forced                                   : No

  50. Text #1
  51. ID                                       : 3
  52. Format                                   : UTF-8
  53. Codec ID                                 : S_TEXT/UTF8
  54. Codec ID/Info                            : UTF-8 Plain Text
  55. Duration                                 : 1 h 33 min
  56. Bit rate                                 : 58 b/s
  57. Count of elements                        : 1428
  58. Stream size                              : 40.0 KiB (0%)
  59. Title                                    : English
  60. Language                                 : English
  61. Default                                  : No
  62. Forced                                   : No

  63. Text #2
  64. ID                                       : 4
  65. Format                                   : UTF-8
  66. Codec ID                                 : S_TEXT/UTF8
  67. Codec ID/Info                            : UTF-8 Plain Text
  68. Duration                                 : 1 h 36 min
  69. Bit rate                                 : 64 b/s
  70. Count of elements                        : 1692
  71. Stream size                              : 45.2 KiB (0%)
  72. Title                                    : English SDH
  73. Language                                 : English
  74. Default                                  : No
  75. Forced                                   : No

  76. Text #3
  77. ID                                       : 5
  78. Format                                   : PGS
  79. Muxing mode                              : zlib
  80. Codec ID                                 : S_HDMV/PGS
  81. Codec ID/Info                            : Picture based subtitle format used on BDs/HD-DVDs
  82. Duration                                 : 1 h 36 min
  83. Bit rate                                 : 27.6 kb/s
  84. Count of elements                        : 3385
  85. Stream size                              : 19.0 MiB (0%)
  86. Title                                    : English SDH PGS
  87. Language                                 : English
  88. Default                                  : No
  89. Forced                                   : No

  90. Menu
  91. 00:00:00.000                             : en:Chapter 01
  92. 00:18:11.090                             : en:Chapter 02
  93. 00:36:49.708                             : en:Chapter 03
  94. 00:54:53.290                             : en:Chapter 04
  95. 01:17:45.161                             : en:Chapter 05
复制代码





                                       
                                       

                                       
                                       
                                       




回复

使用道具 举报

懒得打字嘛,点击右侧快捷回复 【右侧内容,后台自定义】
您需要登录后才可以回帖 登录 | 立即加入

本版积分规则

Archiver|小黑屋| 蓝光电影网 |网站地图

Copyright © 2021 Comsenz Inc. Powered by 蓝光电影网

蓝光电影网

本站内容由用户自主分享和转载自互联网,转载目的在于传递更多信息,并不代表本网赞同其观点和对其真实性负责。

如有侵权、违反国家法律政策行为,请联系我们,我们会第一时间及时清除和处理!

举报反馈邮箱:[email protected]

快速回复 返回顶部 返回列表