找回密码

查看: 1428|回复: 0

[2160p] 勇敢者游戏2:再战巅峰[简繁英字幕].Jumanji.The.Next.Level.2019.UHD.BluRay.2160p.DTS-X.MA.7.1.x265.10bit.HDR-ALT 12.65GB

[复制链接]
蓝光币
8
发表于 2022-8-1 21:36:59 | 显示全部楼层 |阅读模式


◎标  题 勇敢者游戏2:再战顶峰
◎译  名 逃出魔幻纪:霸气升呢(港) / 蛮横游戏:周全升级(台) / 勇敢者游戏2 / 新勇敢者的游戏2 / 勇敢者游戏4 / Jumanji 2
◎片  名 Jumanji: The Next Level
◎年  代 2019
◎产  地 美国
◎类  别 笑剧 / 行动 / 奇异 / 冒险
◎语  言 英语
◎上映日期 2019-12-06(中国大陆) / 2019-12-13(美国)
◎IMDb评分 6.7/10 (223633人评价)
◎IMDb链接 https://www.imdb.com/title/tt7975244/
◎豆瓣评分 5.9/10 (100819人评价)
◎豆瓣链接 https://movie.douban.com/subject/30128985/
◎片  长 122分钟
◎导  演 杰克·卡斯丹 Jake Kasdan
◎编  剧 杰夫·皮克纳 Jeff Pinkner
       斯科特·罗森伯格 Scott Rosenberg
◎演  员 道恩·强森 Dwayne Johnson
       凯伦·吉兰 Karen Gillan
       杰克·布莱克 Jack Black
       凯文·哈特 Kevin Hart
       尼克·乔纳斯 Nick Jonas
       奥卡菲娜 Awkwafina
       亚历克斯·沃尔夫 Alex Wolff
       丹尼·德维托 Danny DeVito
       摩根·特纳 Morgan Turner
       罗伊·麦克凯恩 Rory McCann
       玛琳·辛科 Marin Hinkle
       麦迪森·伊瑟曼 Madison Iseman
       科林·汉克斯 Colin Hanks
       丹妮亚·拉米雷兹 Dania Ramirez
       瑞斯·达比 Rhys Darby
       丹尼·格洛弗 Danny Glover
       瑟达吕斯·布兰 Ser'Darius Blain
       尼克·戈麦斯 Nick Gomez
       布鲁诺·罗斯 Bruno Rose
       莎拉·贝纳尼 Sarah Bennani
       查尔斯·格林 Charles Green
       迈克尔·比斯利 Michael Beasley
       保罗·皮尔斯伯里 Paul Pillsbury
       萨尔·隆戈巴尔多 Sal Longobardo
       约翰·盖蒂尔 John Gettier
       詹姆斯·威廉·巴拉德 James William Ballard
       文斯·皮萨尼 Vince Pisani
◎标  签 冒险 / 奇异 / 笑剧 / 美国 / 行动 / 2019 / 科幻 / 搞笑
◎简  介
    四名勇敢者再次穿越回到险象环生的游戏天下中,开启全新冒险。与上次分歧的是,变身勇石博士 (道恩·强森 饰) 的是斯潘瑟的外公,外公的好友则变身为说话学家 (凯文· 哈特 饰),高峻威猛的弗里奇酿成了中年发福地质学家 (杰克·布莱克 饰),只要学霸玛莎照旧化身性感打女 (凯伦·吉兰 饰),斯潘瑟和贝瑟尼却不知所踪。为救援消失的伙伴,四人必须进入周全失控的未知天下,面临难度爆表危险重重的致命关卡,强森领队应战极限玩命闯关。山崩石裂的险境中命悬一线,与突如其来的凶悍野兽死战到底,他们惟有绷紧神经并肩作战,才能经过生死考验逃诞生天。一场惊险刺激又布满欣喜的冒险之观光将展开!
  1. ##### MediaInfo ######
  2. General
  3. Unique ID                                : 241154714303654884262198854137950204324 (0xB56CB5639513A1C695E1E47D657B71A4)
  4. Complete name                            : Jumanji.The.Next.Level.2019.UHD.BluRay.2160p.DTS-X.MA.7.1.x265.10bit.HDR-ALT.mkv
  5. Format                                   : Matroska
  6. Format version                           : Version 4
  7. File size                                : 12.6 GiB
  8. Duration                                 : 2 h 3 min
  9. Overall bit rate mode                    : Variable
  10. Overall bit rate                         : 14.7 Mb/s
  11. Encoded date                             : UTC 2020-03-10 05:18:37
  12. Writing application                      : mkvmerge v44.0.0 ('Domino') 64-bit
  13. Writing library                          : libebml v1.3.10 + libmatroska v1.5.2
  14. Video
  15. ID                                       : 1
  16. Format                                   : HEVC
  17. Format/Info                              : High Efficiency Video Coding
  18. Format profile                           : Main 10@L5.1@High
  19. HDR format                               : SMPTE ST 2086, HDR10 compatible
  20. Codec ID                                 : V_MPEGH/ISO/HEVC
  21. Duration                                 : 2 h 3 min
  22. Bit rate                                 : 8 290 kb/s
  23. Width                                    : 3 840 pixels
  24. Height                                   : 1 608 pixels
  25. Display aspect ratio                     : 2.40:1
  26. Frame rate mode                          : Constant
  27. Frame rate                               : 23.976 (24000/1001/53875) FPS
  28. Color space                              : YUV
  29. Chroma subsampling                       : 4:2:0 (Type 2)
  30. Bit depth                                : 10 bits
  31. Bits/(Pixel*Frame)                       : 0.056
  32. Stream size                              : 7.13 GiB (56%)
  33. Title                                    : HEVC, x265Main10@L5.1@High, 24/1.001 fps @
  34. Writing library                          : x265 3.0_Au+4-dcbec33bfb0f:[Windows][GCC 8.2.1][64 bit] 10bit
  35. Encoding settings                        : cpuid=538751111039 / frame-threads=4 / numa-pools=16 / wpp / pmode / pme / no-psnr / no-ssim / log-level=2 / input-csp=1 / input-res=3840x1608 / interlace=0 / total-frames=111112 / level-idc=51 / high-tier=1 / uhd-bd=0 / ref=4 / no-allow-non-conformance / repeat-headers / annexb / no-aud / hrd / info / hash=0 / no-temporal-layers / no-open-gop / min-keyint=24 / keyint=240 / gop-lookahead=0 / bframes=8 / b-adapt=2 / b-pyramid / bframe-bias=0 / rc-lookahead=25 / lookahead-slices=0 / NTM4NzU=uuDQuD2mJt9fsCf / scenecut=40 / radl=0 / no-splice / no-intra-refresh / ctu=64 / min-cu-size=8 / no-rect / no-amp / max-tu-size=32 / tu-inter-depth=3 / tu-intra-depth=3 / limit-tu=4 / rdoq-level=2 / dynamic-rd=0.00 / no-ssim-rd / signhide / no-tskip / nr-intra=0 / nr-inter=0 / no-constrained-intra / no-strong-intra-smoothing / max-merge=4 / limit-refs=1 / limit-modes / me=3 / subme=4 / merange=25 / temporal-mvp / weightp / weightb / no-analyze-src-pics / deblock=-3:-3 / no-sao / no-sao-non-deblock / rd=6 / no-early-skip / rskip / no-fast-intra / no-tskip-fast / no-cu-lossless / b-intra / no-splitrd-skip / rdpenalty=0 / psy-rd=2.00 / psy-rdoq=1.00 / no-rd-refine / no-lossless / cbqpoffs=0 / crqpoffs=0 / rc=crf / crf=17.0 / qcomp=0.65 / qpstep=4 / stats-write=0 / stats-read=0 / vbv-maxrate=160000 / vbv-bufsize=160000 / vbv-init=0.9 / crf-max=0.0 / crf-min=0.0 / ipratio=1.30 / pbratio=1.20 / aq-mode=3 / aq-strength=0.85 / cutree / zone-count=0 / no-strict-cbr / qg-size=32 / no-rc-grain / qpmax=69 / qpmin=0 / no-const-vbv / sar=1 / overscan=0 / videoformat=5 / range=0 / colorprim=9 / transfer=16 / colormatrix=9 / chromaloc=1 / chromaloc-top=2 / chromaloc-bottom=2 / display-window=0 / master-display=G(13250,34500)B(7500,3000)R(34000,16000)WP(15635,16450)L(40000000,50) / max-cll=6248,902 / min-luma=0 / max-luma=1023 / log2-max-poc-lsb=8 / vui-timing-info / vui-hrd-info / slices=1 / no-opt-qp-pps / no-opt-ref-list-length-pps / no-multi-pass-opt-rps / scenecut-bias=0.05 / no-opt-cu-delta-qp / no-aq-motion / hdr / hdr-opt / no-dhdr10-opt / no-idr-recovery-sei / analysis-reuse-level=5 / scale-factor=0 / refine-intra=0 / refine-inter=0 / refine-mv=0 / refine-ctu-distortion=0 / no-limit-sao / ctu-info=0 / no-lowpass-dct / refine-analysis-type=0 / copy-pic=1 / max-ausize-factor=1.0 / no-dynamic-refine / no-single-sei / no-hevc-aq / qp-adaptation-range=1.00
  36. Language                                 : English
  37. Default                                  : Yes
  38. Forced                                   : No
  39. Color range                              : Limited
  40. Color primaries                          : BT.2020
  41. Transfer characteristics                 : PQ
  42. Matrix coefficients                      : BT.2020 non-constant
  43. Mastering display color primaries        : Display P3
  44. Mastering display luminance              : min: 0.0050 cd/m2, max: 4000 cd/m2
  45. Maximum Content Light Level              : 6248 cd/m2
  46. Maximum Frame-Average Light Level        : 902 cd/m2
  47. Audio
  48. ID                                       : 2
  49. Format                                   : DTS XLL
  50. Format/Info                              : Digital Theater Systems
  51. Commercial name                          : DTS-HD Master Audio
  52. Codec ID                                 : A_DTS
  53. Duration                                 : 2 h 3 min
  54. Bit rate mode                            : Variable
  55. Bit rate                                 : 6 291 kb/s
  56. Channel(s)                               : 8 channels
  57. Channel layout                           : C L R LFE Lb Rb Lss Rss
  58. Sampling rate                            : 48.0 kHz
  59. Frame rate                               : 93.750 FPS (512 SPF)
  60. Bit depth                                : 24 bits
  61. Compression mode                         : Lossless
  62. Stream size                              : 5.41 GiB (43%)
  63. Title                                    : English DTS:X Master Audio 7.1 @ 6291 kbps
  64. Language                                 : English
  65. Default                                  : Yes
  66. Forced                                   : No
  67. Text #1
  68. ID                                       : 3
  69. Format                                   : PGS
  70. Codec ID                                 : S_HDMV/PGS
  71. Codec ID/Info                            : Picture based subtitle format used on BDs/HD-DVDs
  72. Duration                                 : 2 h 2 min
  73. Bit rate                                 : 37.0 kb/s
  74. Count of elements                        : 3704
  75. Stream size                              : 32.4 MiB (0%)
  76. Title                                    : Eng/SUP  SDH
  77. Language                                 : English
  78. Default                                  : No
  79. Forced                                   : No
  80. Text #2
  81. ID                                       : 4
  82. Format                                   : PGS
  83. Codec ID                                 : S_HDMV/PGS
  84. Codec ID/Info                            : Picture based subtitle format used on BDs/HD-DVDs
  85. Duration                                 : 1 h 52 min
  86. Bit rate                                 : 35.2 kb/s
  87. Count of elements                        : 3114
  88. Stream size                              : 28.4 MiB (0%)
  89. Title                                    : Eng/SUP
  90. Language                                 : English
  91. Default                                  : No
  92. Forced                                   : No
  93. Text #3
  94. ID                                       : 5
  95. Format                                   : PGS
  96. Codec ID                                 : S_HDMV/PGS
  97. Codec ID/Info                            : Picture based subtitle format used on BDs/HD-DVDs
  98. Duration                                 : 1 h 53 min
  99. Bit rate                                 : 23.6 kb/s
  100. Count of elements                        : 3796
  101. Stream size                              : 19.1 MiB (0%)
  102. Title                                    : Chs/SUP  简体
  103. Language                                 : Chinese
  104. Default                                  : Yes
  105. Forced                                   : No
  106. Text #4
  107. ID                                       : 6
  108. Format                                   : PGS
  109. Codec ID                                 : S_HDMV/PGS
  110. Codec ID/Info                            : Picture based subtitle format used on BDs/HD-DVDs
  111. Duration                                 : 1 h 53 min
  112. Bit rate                                 : 24.6 kb/s
  113. Count of elements                        : 3796
  114. Stream size                              : 20.0 MiB (0%)
  115. Title                                    : Cht/SUP  繁体
  116. Language                                 : Chinese
  117. Default                                  : No
  118. Forced                                   : No
  119. Menu
  120. 00:00:00.000                             : en:第 01 章
  121. 00:09:18.349                             : en:第 02 章
  122. 00:17:40.476                             : en:第 03 章
  123. 00:23:10.681                             : en:第 04 章
  124. 00:31:12.287                             : en:第 05 章
  125. 00:38:19.130                             : en:第 06 章
  126. 00:42:39.265                             : en:第 07 章
  127. 00:48:52.972                             : en:第 08 章
  128. 00:57:11.428                             : en:第 09 章
  129. 01:06:03.001                             : en:第 10 章
  130. 01:13:16.142                             : en:第 11 章
  131. 01:21:29.093                             : en:第 12 章
  132. 01:28:33.725                             : en:第 13 章
  133. 01:32:39.512                             : en:第 14 章
  134. 01:37:05.403                             : en:第 15 章
  135. 01:45:00.586                             : en:第 16 章
复制代码
















保举请利用qBittorrent,utorrent,transmission等标准BT软件下载!以获得最快速度。奉求保种!





回复

使用道具 举报

懒得打字嘛,点击右侧快捷回复 【右侧内容,后台自定义】
您需要登录后才可以回帖 登录 | 立即加入

本版积分规则

Copyright © 2024 Comsenz Inc. Powered by 蓝光电影网

本站内容由用户自主分享和转载自互联网,转载目的在于传递更多信息,并不代表本网赞同其观点和对其真实性负责。

如有侵权、违反国家法律政策行为,请联系我们,我们会第一时间及时清除和处理!

举报反馈邮箱:4k1080.com@gmail.com

快速回复 返回顶部 返回列表