找回密码

查看: 1735|回复: 1

[剧情] 实习生[简繁英双语字幕].The.Intern.2015.BluRay.1080p.DTS-HD.MA5.1.x265.10bit-ALT 11.49GB

[复制链接]
蓝光币
8
发表于 2022-8-1 21:54:55 | 显示全部楼层 |阅读模式


◎标  题 练习生
◎译  名 高年级练习生(台) / 见习冇限耆(港)
◎片  名 The Intern
◎年  代 2015
◎产  地 美国
◎类  别 笑剧
◎语  言 英语
◎上映日期 2015-09-25(美国)
◎IMDb评分 7.1/10 (239468人评价)
◎IMDb链接 https://www.imdb.com/title/tt2361509/
◎豆瓣评分 8.0/10 (260852人评价)
◎豆瓣链接 https://movie.douban.com/subject/10594965/
◎片  长 121分钟
◎导  演 南希·迈耶斯 Nancy Meyers
◎编  剧 南希·迈耶斯 Nancy Meyers
◎演  员 罗伯特·德尼罗 Robert De Niro
       安妮·海瑟薇 Anne Hathaway
       蕾妮·罗素 Rene Russo
       安德雷斯·霍尔姆 Anders Holm
       乔乔·库什纳 JoJo Kushner
       安德鲁·兰内斯 Andrew Rannells
       亚当·德维尼 Adam DeVine
       扎克·珀尔曼 Zack Pearlman
       杰森·奥利 Jason Orley
       克里斯蒂娜·谢勒 Christina Scherer
       纳特·沃尔夫 Nat Wolff
       琳达·拉文 Linda Lavin
       西利亚·维斯顿 Celia Weston
       史蒂夫·维诺维奇 Steve Vinovich
       玛丽·凯·普莱斯 Mary Kay Place
       德瑞娜·德尼罗 Drena De Niro
       克里斯蒂娜·布鲁卡托 Christina Brucato
       C·J·威尔逊 C.J.Wilson
       瓦莉斯·柯里-伍德 Wallis Currie-Wood
       莫莉·伯纳德 Molly Bernard
       西德尼·莫顿 Sydney Morton
       利兹·霍坦 Liz Holtan
       马克斯·埃森 Max von Essen
       肖恩·克莱尔 Sean Kleier
       埃利奥特·维拉尔 Elliot Villar
       迈克尔·曼 Michael Mann
       凯勒布·朗 Cayleb Long
       瑞德·斯科特 Reid Scott
       Erin Mackey Erin Mackey
       彼得·瓦克 Peter Vack
       克里斯汀·伊万格丽斯塔 Christine Evangelista
       史蒂文·韦斯 Steven Weisz
◎标  签 温情 / 美国 / 职场 / 长大 / 励志 / 笑剧 / 女性 / 剧情
◎简  介
    年近七十的本(罗伯特·德尼罗 Robert De Niro 饰)已经是一位精明强干,奇迹有成的贩子,终极,他还是和大部分老年人一样起头了平平的退休生活。本对忙碌而又充实的曩昔非常怀念,孤独与心里里捋臂张拳的渴望让他做出了重回职场的决议,成为了年轻的朱尔斯(安妮·海瑟薇 Anne Hathaway 饰)手下的一位小小员工。                                                                      朱利安年数虽轻却是一家著名时髦购物网站的开办人,为了奇迹,她牺牲了自己全数的专业时候和豪情生活,这份奇迹带给了朱利安光荣,却也成为了她肩上繁重的负担,更糟的是,公司董事会已经起头思疑,朱利安能否可以胜任她今朝的职位了。开初,朱利安并没有将年老又落伍的本放在眼里,但是,随着时候的推移,这位慈爱的长者渐渐成为了她生活中最真挚的朋友。
  1. ##### MediaInfo ######
  2. General
  3. Unique ID                                : 112588583646609575470684698598061223062 (0x54B3C5C035504D9104A2E470D79DAC96)
  4. Complete name                            : The.Intern.2015.BluRay.1080p.DTS-HD.MA5.1.x265.10bit-ALT.mkv
  5. Format                                   : Matroska
  6. Format version                           : Version 4
  7. File size                                : 11.5 GiB
  8. Duration                                 : 2 h 1 min
  9. Overall bit rate mode                    : Variable
  10. Overall bit rate                         : 13.5 Mb/s
  11. Encoded date                             : UTC 2022-03-03 11:35:49
  12. Writing application                      : mkvmerge v49.0.0 ('Sick Of Losing Soulmates') 64-bit
  13. Writing library                          : libebml v1.4.0 + libmatroska v1.6.1
  14. Video
  15. ID                                       : 1
  16. Format                                   : HEVC
  17. Format/Info                              : High Efficiency Video Coding
  18. Format profile                           : Main 10@L5.1@High
  19. Codec ID                                 : V_MPEGH/ISO/HEVC
  20. Duration                                 : 2 h 1 min
  21. Bit rate                                 : 9 858 kb/s
  22. Width                                    : 1 920 pixels
  23. Height                                   : 1 080 pixels
  24. Display aspect ratio                     : 16:9
  25. Frame rate mode                          : Constant
  26. Frame rate                               : 23.976 (24000/1001/53875) FPS
  27. Color space                              : YUV
  28. Chroma subsampling                       : 4:2:0
  29. Bit depth                                : 10 bits
  30. Bits/(Pixel*Frame)                       : 0.198
  31. Stream size                              : 8.37 GiB (73%)
  32. Title                                    : HEVC, x265Main10@L5.1@High, 24/1.001 fps @ 9857 kbps
  33. Writing library                          : x265 3.4+14-gd419c7152:[Windows][GCC 10.2.0][64 bit] 10bit
  34. Encoding settings                        : cpuid=538751111039 / frame-threads=4 / numa-pools=16 / wpp / pmode / pme / no-psnr / no-ssim / log-level=2 / input-csp=1 / input-res=1920x1080 / interlace=0 / total-frames=174832 / level-idc=51 / high-tier=1 / uhd-bd=0 / ref=5 / no-allow-non-conformance / no-repeat-headers / annexb / no-aud / no-hrd / info / hash=0 / no-temporal-layers / open-gop / min-keyint=24 / keyint=240 / gop-lookahead=0 / bframes=6 / b-adapt=2 / b-pyramid / bframe-bias=0 / rc-lookahead=40 / lookahead-slices=0 / NTM4NzU=uuDQuD2mJt9fsCf / scenecut=40 / hist-scenecut=0 / radl=0 / no-splice / no-intra-refresh / ctu=32 / min-cu-size=8 / no-rect / no-amp / max-tu-size=32 / tu-inter-depth=3 / tu-intra-depth=3 / limit-tu=4 / rdoq-level=2 / dynamic-rd=0.00 / no-ssim-rd / signhide / no-tskip / nr-intra=0 / nr-inter=0 / no-constrained-intra / no-strong-intra-smoothing / max-merge=4 / limit-refs=1 / limit-modes / me=3 / subme=4 / merange=25 / temporal-mvp / no-frame-dup / no-hme / weightp / weightb / no-analyze-src-pics / deblock=-3:-3 / no-sao / no-sao-non-deblock / rd=6 / selective-sao=0 / no-early-skip / rskip / no-fast-intra / no-tskip-fast / no-cu-lossless / b-intra / no-splitrd-skip / rdpenalty=0 / psy-rd=2.00 / psy-rdoq=1.00 / no-rd-refine / no-lossless / cbqpoffs=0 / crqpoffs=0 / rc=crf / crf=19.5 / qcomp=0.65 / qpstep=4 / stats-write=0 / stats-read=0 / vbv-maxrate=80000 / vbv-bufsize=80000 / vbv-init=0.9 / crf-max=0.0 / crf-min=0.0 / ipratio=1.40 / pbratio=1.30 / aq-mode=2 / aq-strength=0.85 / cutree / zone-count=0 / no-strict-cbr / qg-size=32 / no-rc-grain / qpmax=69 / qpmin=0 / no-const-vbv / sar=1 / overscan=0 / videoformat=5 / range=0 / colorprim=1 / transfer=1 / colormatrix=1 / chromaloc=0 / display-window=0 / cll=0,0 / min-luma=0 / max-luma=1023 / log2-max-poc-lsb=8 / vui-timing-info / vui-hrd-info / slices=1 / no-opt-qp-pps / no-opt-ref-list-length-pps / no-multi-pass-opt-rps / scenecut-bias=0.05 / hist-threshold=0.03 / no-opt-cu-delta-qp / no-aq-motion / no-hdr10 / no-hdr10-opt / no-dhdr10-opt / no-idr-recovery-sei / analysis-reuse-level=0 / analysis-save-reuse-level=0 / analysis-load-reuse-level=0 / scale-factor=0 / refine-intra=0 / refine-inter=0 / refine-mv=1 / refine-ctu-distortion=0 / no-limit-sao / ctu-info=0 / no-lowpass-dct / refine-analysis-type=0 / copy-pic=1 / max-ausize-factor=1.0 / no-dynamic-refine / no-single-sei / no-hevc-aq / no-svt / no-field / qp-adaptation-range=1.00 / no-scenecut-aware-qpconformance-window-offsets / right=0 / bottom=0 / NTM4NzU= / decoder-max-rate=0
  35. Language                                 : English
  36. Default                                  : Yes
  37. Forced                                   : No
  38. Color range                              : Limited
  39. Color primaries                          : BT.709
  40. Transfer characteristics                 : BT.709
  41. Matrix coefficients                      : BT.709
  42. Audio
  43. ID                                       : 2
  44. Format                                   : DTS XLL
  45. Format/Info                              : Digital Theater Systems
  46. Commercial name                          : DTS-HD Master Audio
  47. Codec ID                                 : A_DTS
  48. Duration                                 : 2 h 1 min
  49. Bit rate mode                            : Variable
  50. Bit rate                                 : 3 337 kb/s
  51. Channel(s)                               : 6 channels
  52. Channel layout                           : C L R Ls Rs LFE
  53. Sampling rate                            : 48.0 kHz
  54. Frame rate                               : 93.750 FPS (512 SPF)
  55. Bit depth                                : 24 bits
  56. Compression mode                         : Lossless
  57. Stream size                              : 2.83 GiB (25%)
  58. Title                                    : English DTS-HD Master Audio 5.1 @ 3337?kbps
  59. Language                                 : English
  60. Default                                  : Yes
  61. Forced                                   : No
  62. Text #1
  63. ID                                       : 3
  64. Format                                   : PGS
  65. Codec ID                                 : S_HDMV/PGS
  66. Codec ID/Info                            : Picture based subtitle format used on BDs/HD-DVDs
  67. Duration                                 : 2 h 0 min
  68. Bit rate                                 : 53.9 kb/s
  69. Count of elements                        : 5202
  70. Stream size                              : 46.4 MiB (0%)
  71. Title                                    : Eng/SUP
  72. Language                                 : English
  73. Default                                  : No
  74. Forced                                   : No
  75. Text #2
  76. ID                                       : 4
  77. Format                                   : PGS
  78. Codec ID                                 : S_HDMV/PGS
  79. Codec ID/Info                            : Picture based subtitle format used on BDs/HD-DVDs
  80. Duration                                 : 1 h 55 min
  81. Bit rate                                 : 45.4 kb/s
  82. Count of elements                        : 2771
  83. Stream size                              : 37.5 MiB (0%)
  84. Title                                    : Chs/SUP  简体
  85. Language                                 : Chinese
  86. Default                                  : Yes
  87. Forced                                   : No
  88. Text #3
  89. ID                                       : 5
  90. Format                                   : PGS
  91. Codec ID                                 : S_HDMV/PGS
  92. Codec ID/Info                            : Picture based subtitle format used on BDs/HD-DVDs
  93. Duration                                 : 1 h 55 min
  94. Bit rate                                 : 46.7 kb/s
  95. Count of elements                        : 2771
  96. Stream size                              : 38.6 MiB (0%)
  97. Title                                    : Cht/SUP  繁体
  98. Language                                 : Chinese
  99. Default                                  : No
  100. Forced                                   : No
  101. Text #4
  102. ID                                       : 6
  103. Format                                   : PGS
  104. Codec ID                                 : S_HDMV/PGS
  105. Codec ID/Info                            : Picture based subtitle format used on BDs/HD-DVDs
  106. Duration                                 : 1 h 55 min
  107. Bit rate                                 : 103 kb/s
  108. Count of elements                        : 2772
  109. Stream size                              : 84.9 MiB (1%)
  110. Title                                    : Chs/SUP  简英双语
  111. Language                                 : Chinese
  112. Default                                  : No
  113. Forced                                   : No
  114. Text #5
  115. ID                                       : 7
  116. Format                                   : PGS
  117. Codec ID                                 : S_HDMV/PGS
  118. Codec ID/Info                            : Picture based subtitle format used on BDs/HD-DVDs
  119. Duration                                 : 1 h 55 min
  120. Bit rate                                 : 104 kb/s
  121. Count of elements                        : 2772
  122. Stream size                              : 85.9 MiB (1%)
  123. Title                                    : Cht/SUP  繁英双语
  124. Language                                 : Chinese
  125. Default                                  : No
  126. Forced                                   : No
  127. Menu
  128. 00:00:00.000                             : en:第 01 章
  129. 00:09:31.154                             : en:第 02 章
  130. 00:19:55.361                             : en:第 03 章
  131. 00:30:29.953                             : en:第 04 章
  132. 00:41:18.434                             : en:第 05 章
  133. 00:50:18.682                             : en:第 06 章
  134. 01:00:34.047                             : en:第 07 章
  135. 01:10:19.048                             : en:第 08 章
  136. 01:19:16.460                             : en:第 09 章
  137. 01:30:59.913                             : en:第 10 章
  138. 01:42:48.496                             : en:第 11 章
  139. 01:51:11.206                             : en:第 12 章
  140. 01:56:41.995                             : en:第 13 章
复制代码
















保举请利用qBittorrent,utorrent,transmission等标准BT软件下载!以获得最快速度。奉求保种!





回复

使用道具 举报

蓝光币
138
发表于 2023-2-26 13:00:02 | 显示全部楼层
将真,qBittorrent真的挺好用的,不过还是麻烦大家尽量做种,多挂一会儿
回复

使用道具 举报

懒得打字嘛,点击右侧快捷回复 【右侧内容,后台自定义】
您需要登录后才可以回帖 登录 | 立即加入

本版积分规则

Archiver| |网站地图

Copyright © 2024 Comsenz Inc. Powered by 蓝光电影网

本站内容由用户自主分享和转载自互联网,转载目的在于传递更多信息,并不代表本网赞同其观点和对其真实性负责。

如有侵权、违反国家法律政策行为,请联系我们,我们会第一时间及时清除和处理!

举报反馈邮箱:4k1080.com@gmail.com

快速回复 返回顶部 返回列表