找回密码

查看: 1455|回复: 0

[剧情] C/侦探[国粤英多音轨/简繁英字幕].The.Detective.2007.BluRay.1080p.2Audio.TrueHD.7.1.x265.10bit-ALT 11.84GB

[复制链接]
蓝光币
8
发表于 2022-8-1 21:56:07 | 显示全部楼层 |阅读模式


◎标  题 C+侦察
◎译  名 C加侦察 / The Detective
◎片  名 C+偵探
◎年  代 2007
◎产  地 中国香港
◎类  别 剧情 / 悬疑
◎语  言 粤语
◎上映日期 2007-09-25(中国香港)
◎IMDb评分 6.6/10 (1229人评价)
◎IMDb链接 https://www.imdb.com/title/tt1107807/
◎豆瓣评分 6.7/10 (30930人评价)
◎豆瓣链接 https://movie.douban.com/subject/2263112/
◎片  长 109 分钟
◎导  演 彭顺 Oxide Pang
◎编  剧 彭顺 Oxide Pang
       彭柏成 Thomas Pang
◎演  员 郭富城 Aaron Kwok
       廖启智 Kai Chi Liu
       黄德斌 Tak-bun Wong
       刘兆铭 Lau Siu Ming
       黎耀祥 Wayne Lai
       成奎安 Fui-On Shing
       商天娥 Tin-Ngoh Seung
       谷祖琳 Jolane Koo
       蔡雪敏 Suet Siu
       彭顺 Oxide Pang
       彭发 Danny Pang
       林炳坤 Bingkun Lin
       林小明
       Decha Srimantra Decha Srimantra
       彭正熙 Curran Pang
       阿努松·品约坡特贾尼 Anuson Pinyopotjanee
       阿努索恩·品约波贾尼 Anusorn Pinyopojanee
       苏拉萨克·瓦拉希查荣 Surasak Warahitcharoen
       苏查达·索玛萨瓦柴 Suchada Somasavachai
       Vachira Wongsarod Vachira Wongsarod
◎简  介
  住在曼谷唐人街,怙恃晚年失落的阿探(郭富城 饰),自幼渴望和洽友风泽(廖启智 饰)一路投身警界,却因高度近视未能如愿,不宁愿之下,他当起了私人侦察,却只能接一些旁门左道的小案子,赢利不多、口碑奇差,还经常入不够出,要靠风泽救济。一天,阿探的朋友肥龙(成奎安 饰)拜托他观察一个女人,宣称自己正在被她追杀。猎奇之下,阿探按照照片查出这个女子叫莫慧心,却在寻觅相关知情人士时接连出现怪异事务:跟莫慧心有关的人相继灭亡,而阿探总是第一个发现者,简直成了死神的化身。为此风泽各式劝告阿探放弃清查,甚至不惜以两人多年友谊威胁,阿探却执意对峙。随着观察的停顿,惊人的真相起头渐渐浮出水面……
  1. ##### MediaInfo ######
  2. General
  3. Unique ID                                : 126816603079365702477439318214052074208 (0x5F67FD44D5FBE5C17500590CD102D2E0)
  4. Complete name                            : The.Detective.2007.BluRay.1080p.2Audio.TrueHD.7.1.x265.10bit-ALT.mkv
  5. Format                                   : Matroska
  6. Format version                           : Version 4
  7. File size                                : 11.8 GiB
  8. Duration                                 : 1 h 49 min
  9. Overall bit rate mode                    : Variable
  10. Overall bit rate                         : 15.5 Mb/s
  11. Encoded date                             : UTC 2022-01-14 16:27:46
  12. Writing application                      : mkvmerge v49.0.0 ('Sick Of Losing Soulmates') 64-bit
  13. Writing library                          : libebml v1.4.0 + libmatroska v1.6.1
  14. Video
  15. ID                                       : 1
  16. Format                                   : HEVC
  17. Format/Info                              : High Efficiency Video Coding
  18. Format profile                           : Main 10@L5.1@High
  19. Codec ID                                 : V_MPEGH/ISO/HEVC
  20. Duration                                 : 1 h 49 min
  21. Bit rate                                 : 10.6 Mb/s
  22. Width                                    : 1 920 pixels
  23. Height                                   : 816 pixels
  24. Display aspect ratio                     : 2.35:1
  25. Frame rate mode                          : Constant
  26. Frame rate                               : 24.000 FPS
  27. Color space                              : YUV
  28. Chroma subsampling                       : 4:2:0
  29. Bit depth                                : 10 bits
  30. Bits/(Pixel*Frame)                       : 0.281
  31. Stream size                              : 8.08 GiB (68%)
  32. Title                                    : HEVC, x265Main10@L5.1@High, 24 fps @ 10552 kbps
  33. Writing library                          : x265 3.4+14-gd419c7152:[Windows][GCC 10.2.0][64 bit] 10bit
  34. Encoding settings                        : cpuid=538751111039 / frame-threads=4 / numa-pools=16 / wpp / pmode / pme / no-psnr / no-ssim / log-level=2 / input-csp=1 / input-res=1920x816 / interlace=0 / total-frames=157753 / level-idc=51 / high-tier=1 / uhd-bd=0 / ref=5 / no-allow-non-conformance / no-repeat-headers / annexb / no-aud / no-hrd / info / hash=0 / no-temporal-layers / open-gop / min-keyint=24 / keyint=240 / gop-lookahead=0 / bframes=6 / b-adapt=2 / b-pyramid / bframe-bias=0 / rc-lookahead=40 / lookahead-slices=0 / NTM4NzU=uuDQuD2mJt9fsCf / scenecut=40 / hist-scenecut=0 / radl=0 / no-splice / no-intra-refresh / ctu=32 / min-cu-size=8 / no-rect / no-amp / max-tu-size=32 / tu-inter-depth=3 / tu-intra-depth=3 / limit-tu=4 / rdoq-level=2 / dynamic-rd=0.00 / no-ssim-rd / signhide / no-tskip / nr-intra=0 / nr-inter=0 / no-constrained-intra / no-strong-intra-smoothing / max-merge=4 / limit-refs=1 / limit-modes / me=3 / subme=4 / merange=25 / temporal-mvp / no-frame-dup / no-hme / weightp / weightb / no-analyze-src-pics / deblock=-3:-3 / no-sao / no-sao-non-deblock / rd=6 / selective-sao=0 / no-early-skip / rskip / no-fast-intra / no-tskip-fast / no-cu-lossless / b-intra / no-splitrd-skip / rdpenalty=0 / psy-rd=2.00 / psy-rdoq=1.00 / no-rd-refine / no-lossless / cbqpoffs=0 / crqpoffs=0 / rc=crf / crf=18.5 / qcomp=0.65 / qpstep=4 / stats-write=0 / stats-read=0 / vbv-maxrate=80000 / vbv-bufsize=80000 / vbv-init=0.9 / crf-max=0.0 / crf-min=0.0 / ipratio=1.40 / pbratio=1.30 / aq-mode=2 / aq-strength=0.85 / cutree / zone-count=0 / no-strict-cbr / qg-size=32 / no-rc-grain / qpmax=69 / qpmin=0 / no-const-vbv / sar=1 / overscan=0 / videoformat=5 / range=0 / colorprim=1 / transfer=1 / colormatrix=1 / chromaloc=0 / display-window=0 / cll=0,0 / min-luma=0 / max-luma=1023 / log2-max-poc-lsb=8 / vui-timing-info / vui-hrd-info / slices=1 / no-opt-qp-pps / no-opt-ref-list-length-pps / no-multi-pass-opt-rps / scenecut-bias=0.05 / hist-threshold=0.03 / no-opt-cu-delta-qp / no-aq-motion / no-hdr10 / no-hdr10-opt / no-dhdr10-opt / no-idr-recovery-sei / analysis-reuse-level=0 / analysis-save-reuse-level=0 / analysis-load-reuse-level=0 / scale-factor=0 / refine-intra=0 / refine-inter=0 / refine-mv=1 / refine-ctu-distortion=0 / no-limit-sao / ctu-info=0 / no-lowpass-dct / refine-analysis-type=0 / copy-pic=1 / max-ausize-factor=1.0 / no-dynamic-refine / no-single-sei / no-hevc-aq / no-svt / no-field / qp-adaptation-range=1.00 / no-scenecut-aware-qpconformance-window-offsets / right=0 / bottom=0 / NTM4NzU= / decoder-max-rate=0
  35. Language                                 : English
  36. Default                                  : Yes
  37. Forced                                   : No
  38. Color range                              : Limited
  39. Color primaries                          : BT.709
  40. Transfer characteristics                 : BT.709
  41. Matrix coefficients                      : BT.709
  42. Audio #1
  43. ID                                       : 2
  44. Format                                   : MLP FBA
  45. Format/Info                              : Meridian Lossless Packing FBA
  46. Commercial name                          : Dolby TrueHD
  47. Codec ID                                 : A_TRUEHD
  48. Duration                                 : 1 h 49 min
  49. Bit rate mode                            : Variable
  50. Bit rate                                 : 1 753 kb/s
  51. Maximum bit rate                         : 3 468 kb/s
  52. Channel(s)                               : 8 channels
  53. Channel layout                           : L R C LFE Ls Rs Lb Rb
  54. Sampling rate                            : 48.0 kHz
  55. Frame rate                               : 1 200.000 FPS (40 SPF)
  56. Compression mode                         : Lossless
  57. Stream size                              : 1.34 GiB (11%)
  58. Title                                    : Mandarin Dolby TrueHD 7.1 @ 2393 kbps
  59. Language                                 : Chinese
  60. Default                                  : Yes
  61. Forced                                   : No
  62. Audio #2
  63. ID                                       : 3
  64. Format                                   : AC-3
  65. Format/Info                              : Audio Coding 3
  66. Commercial name                          : Dolby Digital
  67. Codec ID                                 : A_AC3
  68. Duration                                 : 1 h 49 min
  69. Bit rate mode                            : Constant
  70. Bit rate                                 : 640 kb/s
  71. Channel(s)                               : 6 channels
  72. Channel layout                           : L R C LFE Ls Rs
  73. Sampling rate                            : 48.0 kHz
  74. Frame rate                               : 31.250 FPS (1536 SPF)
  75. Compression mode                         : Lossy
  76. Stream size                              : 501 MiB (4%)
  77. Title                                    : Mandarin Dolby Digital Audio 5.1 @ 640 kbps
  78. Language                                 : Chinese
  79. Service kind                             : Complete Main
  80. Default                                  : No
  81. Forced                                   : No
  82. Audio #3
  83. ID                                       : 4
  84. Format                                   : DTS XLL
  85. Format/Info                              : Digital Theater Systems
  86. Commercial name                          : DTS-HD Master Audio
  87. Codec ID                                 : A_DTS
  88. Duration                                 : 1 h 49 min
  89. Bit rate mode                            : Variable
  90. Bit rate                                 : 2 395 kb/s
  91. Channel(s)                               : 8 channels
  92. Channel layout                           : C L R LFE Lb Rb Lss Rss
  93. Sampling rate                            : 48.0 kHz
  94. Frame rate                               : 93.750 FPS (512 SPF)
  95. Bit depth                                : 16 bits
  96. Compression mode                         : Lossless
  97. Stream size                              : 1.83 GiB (15%)
  98. Title                                    : Cantonese DTS-HD Master Audio 7.1 @ 2395 kbps
  99. Language                                 : Chinese
  100. Default                                  : No
  101. Forced                                   : No
  102. Text #1
  103. ID                                       : 5
  104. Format                                   : PGS
  105. Codec ID                                 : S_HDMV/PGS
  106. Codec ID/Info                            : Picture based subtitle format used on BDs/HD-DVDs
  107. Duration                                 : 1 h 42 min
  108. Bit rate                                 : 20.9 kb/s
  109. Count of elements                        : 1429
  110. Stream size                              : 15.3 MiB (0%)
  111. Title                                    : Cht/SUP  原盘繁体
  112. Language                                 : Chinese
  113. Default                                  : No
  114. Forced                                   : No
  115. Text #2
  116. ID                                       : 6
  117. Format                                   : PGS
  118. Codec ID                                 : S_HDMV/PGS
  119. Codec ID/Info                            : Picture based subtitle format used on BDs/HD-DVDs
  120. Duration                                 : 1 h 42 min
  121. Bit rate                                 : 19.7 kb/s
  122. Count of elements                        : 1429
  123. Stream size                              : 14.4 MiB (0%)
  124. Title                                    : Chs/SUP  原盘简体
  125. Language                                 : Chinese
  126. Default                                  : Yes
  127. Forced                                   : No
  128. Text #3
  129. ID                                       : 7
  130. Format                                   : PGS
  131. Codec ID                                 : S_HDMV/PGS
  132. Codec ID/Info                            : Picture based subtitle format used on BDs/HD-DVDs
  133. Duration                                 : 1 h 42 min
  134. Bit rate                                 : 22.9 kb/s
  135. Count of elements                        : 1429
  136. Stream size                              : 16.8 MiB (0%)
  137. Title                                    : Eng/SUP
  138. Language                                 : English
  139. Default                                  : No
  140. Forced                                   : No
  141. Menu
  142. 00:00:00.000                             : en:第 01 章
  143. 00:18:10.000                             : en:第 02 章
  144. 00:36:20.000                             : en:第 03 章
  145. 00:54:30.000                             : en:第 04 章
  146. 01:12:17.000                             : en:第 05 章
  147. 01:30:22.000                             : en:第 06 章
复制代码
















保举请利用qBittorrent,utorrent,transmission等标准BT软件下载!以获得最快速度。奉求保种!





回复

使用道具 举报

懒得打字嘛,点击右侧快捷回复 【右侧内容,后台自定义】
您需要登录后才可以回帖 登录 | 立即加入

本版积分规则

Copyright © 2024 Comsenz Inc. Powered by 蓝光电影网

本站内容由用户自主分享和转载自互联网,转载目的在于传递更多信息,并不代表本网赞同其观点和对其真实性负责。

如有侵权、违反国家法律政策行为,请联系我们,我们会第一时间及时清除和处理!

举报反馈邮箱:4k1080.com@gmail.com

快速回复 返回顶部 返回列表