找回密码

查看: 1132|回复: 0

[剧情] 泡吧侦探3[中文字幕].The.Last.Shot.in.the.Bar.2017.1080p.WEB-DL.H264.AAC-MOMOWEB 4.61GB

[复制链接]
蓝光币
8
发表于 2022-8-4 04:09:10 | 显示全部楼层 |阅读模式


◎标  题 泡吧侦察3
◎译  名 The Last Shot in the Bar / Tantei wa bar ni iru 3
◎片  名 探偵はBARにいる3
◎年  代 2017
◎产  地 日本
◎类  别 剧情
◎语  言 日语
◎上映日期 2017-12-01(日本)
◎IMDb评分 5.7/10 (167人评价)
◎IMDb链接 https://www.imdb.com/title/tt7058618/
◎豆瓣评分 6.3/10 (1315人评价)
◎豆瓣链接 https://movie.douban.com/subject/24719840/
◎片  长 122分钟
◎导  演 吉田照幸 Teruyuki Yoshida
◎编  剧 古泽良太 Ryota Kosawa
◎演  员 大泉洋 Yô Ôizumi
       松田龙平 Ryûhei Matsuda
       北川景子 Keiko Kitagawa
       中川雅也 Lily Franky
       前田敦子 Atsuko Maeda
       志尊淳 Jun Shison
       松重丰 Yutaka Matsushige
       铃木砂羽 Sawa Suzuki
       儿岛雄一 Magy
       田口智朗 Tomorowo Taguchi
       今村美乃 Yoshino Imamura
◎简  介
  侦察一如平常在熟悉的酒吧里消磨时候,这时来了活。客户是侦察的助手高田的学弟。他的女朋友玲子失落了。侦察赞成帮助寻觅她,他发现玲子不但以模特身份签约了一家名叫“纯洁的心”的事务所,同时还在某个名声不太好的场所兼职。在观察进程中,他们碰到了玲子兼职场所的老板麻里。很快,麻里在两个硬朗汉子的陪伴下再次出现。她得知侦察和助手正在处处观察,因而把他们打了个鼻青脸肿。虽然如此,侦察没有是以而畏缩并继续展开观察。他得知纯洁的苦衷务所的掌管者是个名叫北条的奥秘人物,而他具有的北条团体则是札幌市最大的团体之一......
  1. ##### MediaInfo ######
  2. General
  3. Complete name                            : The.Last.Shot.in.the.Bar.2017.1080p.WEB-DL.H264.AAC-MOMOWEB.mp4
  4. Format                                   : MPEG-4
  5. Format profile                           : Base Media
  6. Codec ID                                 : isom (isom/iso2/avc1/mp41)
  7. File size                                : 4.61 GiB
  8. Duration                                 : 2 h 1 min
  9. Overall bit rate                         : 5 448 kb/s
  10. Movie name                               : 泡吧侦察3
  11. Writing application                      : Lavf59.17.101
  12. Cover                                    : Yes
  13. Video
  14. ID                                       : 1
  15. Format                                   : AVC
  16. Format/Info                              : Advanced Video Codec
  17. Format profile                           : High@L5
  18. Format settings                          : CABAC / 6 Ref Frames
  19. Format settings, CABAC                   : Yes
  20. Format settings, Reference frames        : 6 frames
  21. Codec ID                                 : avc1
  22. Codec ID/Info                            : Advanced Video Coding
  23. Duration                                 : 2 h 1 min
  24. Bit rate                                 : 5 120 kb/s
  25. Width                                    : 1 920 pixels
  26. Height                                   : 1 036 pixels
  27. Display aspect ratio                     : 1.85:1
  28. Frame rate mode                          : Variable
  29. Frame rate                               : 23.976 (24000/1001/53875) FPS
  30. Minimum frame rate                       : 23.810 FPS
  31. Maximum frame rate                       : 24.390 FPS
  32. Color space                              : YUV
  33. Chroma subsampling                       : 4:2:0
  34. Bit depth                                : 8 bits
  35. Scan type                                : Progressive
  36. Bits/(Pixel*Frame)                       : 0.107
  37. Stream size                              : 4.33 GiB (94%)
  38. Color range                              : Limited
  39. Color primaries                          : BT.709
  40. Transfer characteristics                 : BT.709
  41. Matrix coefficients                      : BT.709
  42. Codec configuration box                  : avcC
  43. Audio
  44. ID                                       : 2
  45. Format                                   : AAC LC
  46. Format/Info                              : Advanced Audio Codec Low Complexity
  47. Codec ID                                 : mp4a-40-2
  48. Duration                                 : 2 h 1 min
  49. Bit rate mode                            : Constant
  50. Bit rate                                 : 320 kb/s
  51. Channel(s)                               : 2 channels
  52. Channel layout                           : L R
  53. Sampling rate                            : 48.0 kHz
  54. Frame rate                               : 46.875 FPS (1024 SPF)
  55. Compression mode                         : Lossy
  56. Stream size                              : 277 MiB (6%)
  57. Default                                  : Yes
  58. Alternate group                          : 1
复制代码



保举请利用qBittorrent,utorrent,transmission等标准BT软件下载!以获得最快速度。奉求保种!





回复

使用道具 举报

懒得打字嘛,点击右侧快捷回复 【右侧内容,后台自定义】
您需要登录后才可以回帖 登录 | 立即加入

本版积分规则

Copyright © 2024 Comsenz Inc. Powered by 蓝光电影网

本站内容由用户自主分享和转载自互联网,转载目的在于传递更多信息,并不代表本网赞同其观点和对其真实性负责。

如有侵权、违反国家法律政策行为,请联系我们,我们会第一时间及时清除和处理!

举报反馈邮箱:4k1080.com@gmail.com

快速回复 返回顶部 返回列表