找回密码

蓝光电影网

查看: 1250|回复: 0

[剧情] 公主与青蛙[国粤英多音轨/简繁英字幕].The.Princess.and.the.Frog.2009.BluRay.1080p.3Audio.DTS-HD.MA5.1.x265.10bit-ALT 6.39GB

[复制链接]
蓝光币
8
发表于 2022-8-5 22:16:47 | 显示全部楼层 |阅读模式


◎标  题 公主与田鸡
◎译  名 公主和田鸡 / 田鸡公主 / The Frog Princess
◎片  名 The Princess and the Frog
◎年  代 2009
◎产  地 美国
◎类  别 笑剧 / 恋爱 / 动画 / 歌舞
◎语  言 英语
◎上映日期 2009-12-11(美国)
◎IMDb评分 7.1/10 (133955人评价)
◎IMDb链接 https://www.imdb.com/title/tt0780521/
◎豆瓣评分 7.5/10 (52810人评价)
◎豆瓣链接 https://movie.douban.com/subject/1949005/
◎片  长 97分钟
◎导  演 罗恩·克莱蒙兹 Ron Clements
       约翰·马斯克 John Musker
◎编  剧 罗恩·克莱蒙兹 Ron Clements
       约翰·马斯克 John Musker
       罗伯·爱德华兹 Rob Edwards
       迪恩·威林斯 Dean Wellins
       拉夫·埃格尔斯顿 Ralph Eggleston
       唐·霍尔 Don Hall
       克里斯·乌雷 Chris Ure
◎演  员 阿尼卡·诺尼·罗斯 Anika Noni Rose
       布鲁诺·坎波斯 Bruno Campos
       凯斯·大卫 Keith David
       Peter Bartlett Peter Bartlett
       詹妮弗·路易斯 Jenifer Lewis
       约翰·古德曼 John Goodman
       泰伦斯·霍华德 Terrence Howard
       泰伦斯·布兰查德 Terence Blanchard
       马龙·韦斯特 Marlon West
       罗伯·爱德华兹 Rob Edwards
       兰迪·纽曼 Randy Newman
       布鲁斯·W·史姑娘 Bruce W. Smith
       Lynwood Robinson Lynwood Robinson
       彼得·德维寇 Peter Del Vecho
       詹妮弗·科迪 Jennifer Cody
       奥普拉·温弗瑞 Oprah Winfrey
       Elizabeth M. Dampier Elizabeth M. Dampier
       唐·霍尔 Don Hall
       麦克-李昂·伍德利 Michael-Leon Wooley
       吉姆·卡明斯 Jim Cummings
       约翰·卡西尔 John Kassir
       莫娜·马歇尔 Mona Marshall
       里夫·霍顿 Rif Hutton
       埃迪·弗里森 Eddie Frierson
       Roger Aaron Brown Roger Aaron Brown
       大卫·考吉尔 David Cowgill
       科里·伯顿 Corey Burton
       菲尔·普洛克特 Phil Proctor
       凯文·迈克尔·理查德森 Kevin Michael Richardson
       科维斯·博卡耶 Kwesi Boakye
       米克·温格特 Mick Wingert
       金伯利·罗素 Kimberly Russell
       约翰·马斯克 John Musker
       Claudette Wells Claudette Wells
       乔·怀特 Joe Whyte
       艾梅里尔•拉加西 Emeril Lagasse
       彼得·雷纳迪 Peter Renaday
◎标  签 动画 / Disney / 美国 / 迪斯尼 / 童话 / 恋爱 / 2009 / 音乐
◎简  介
    蒂亚娜(Tiana)是个从不相信童话的女孩子,具有烹饪天赋的她最大的方针即是开一家属于自己的餐厅,多年来她一向尽力赢利,希望够自己的双手去实现胡想。可是就在她行将攒够钱的那天早晨,她碰到一只自称是王子马文(Naveen)的田鸡,他说自己是被影子人施了魔法而且许诺只要蒂亚娜吻他,那末他便可以帮蒂亚娜实现胡想。可是当蒂亚娜吻完田鸡,田鸡并没有酿成马文王子,蒂亚娜却酿成了一只田鸡。他们在躲避好人的追逐时碰到喜好演奏爵士乐的鳄鱼路易斯和荧火虫雷蒙,他们决议一路去密西西比河河口找女巫妈妈沃提帮手。邪恶的影子人派出多量的影子杀手已经追上了这一行人,在生死关头,妈妈沃提出现救了他们而且告诉了他们假如要变会人类,马文就必须去亲吻实在的公主夏洛特。可是此时马文在和蒂亚娜相处的进程中早已经爱上了这个固执的女孩子……                                                                      本片不管从音乐和画面都融入大量新奥尔良元素,为影片创作音乐的兰迪·纽曼(Randy Newman)曾获奥斯卡奖,他本人就是新奥尔良人。
  1. ##### MediaInfo ######
  2. General
  3. Unique ID                                : 265204422030900464529150562345972357164 (0xC7848386E91BE9FEA28F45C307DF582C)
  4. Complete name                            : The.Princess.and.the.Frog.2009.BluRay.1080p.3Audio.DTS-HD.MA5.1.x265.10bit-ALT.mkv
  5. Format                                   : Matroska
  6. Format version                           : Version 4
  7. File size                                : 6.39 GiB
  8. Duration                                 : 1 h 37 min
  9. Overall bit rate mode                    : Variable
  10. Overall bit rate                         : 9 385 kb/s
  11. Encoded date                             : UTC 2022-01-24 07:06:24
  12. Writing application                      : mkvmerge v49.0.0 ('Sick Of Losing Soulmates') 64-bit
  13. Writing library                          : libebml v1.4.0 + libmatroska v1.6.1
  14. Video
  15. ID                                       : 1
  16. Format                                   : HEVC
  17. Format/Info                              : High Efficiency Video Coding
  18. Format profile                           : Main 10@L5.1@High
  19. Codec ID                                 : V_MPEGH/ISO/HEVC
  20. Duration                                 : 1 h 37 min
  21. Bit rate                                 : 3 868 kb/s
  22. Width                                    : 1 920 pixels
  23. Height                                   : 1 080 pixels
  24. Display aspect ratio                     : 16:9
  25. Frame rate mode                          : Constant
  26. Frame rate                               : 23.976 (24000/1001/53875) FPS
  27. Color space                              : YUV
  28. Chroma subsampling                       : 4:2:0
  29. Bit depth                                : 10 bits
  30. Bits/(Pixel*Frame)                       : 0.078
  31. Stream size                              : 2.63 GiB (41%)
  32. Title                                    : HEVC, x265Main10@L5.1@High, 24/1.001 fps @ 3868 kbps
  33. Writing library                          : x265 3.4+14-gd419c7152:[Windows][GCC 10.2.0][64 bit] 10bit
  34. Encoding settings                        : cpuid=538751111039 / frame-threads=4 / numa-pools=16 / wpp / pmode / pme / no-psnr / no-ssim / log-level=2 / input-csp=1 / input-res=1920x1080 / interlace=0 / total-frames=140204 / level-idc=51 / high-tier=1 / uhd-bd=0 / ref=5 / no-allow-non-conformance / no-repeat-headers / annexb / no-aud / no-hrd / info / hash=0 / no-temporal-layers / open-gop / min-keyint=24 / keyint=240 / gop-lookahead=0 / bframes=6 / b-adapt=2 / b-pyramid / bframe-bias=0 / rc-lookahead=40 / lookahead-slices=0 / NTM4NzU=uuDQuD2mJt9fsCf / scenecut=40 / hist-scenecut=0 / radl=0 / no-splice / no-intra-refresh / ctu=32 / min-cu-size=8 / no-rect / no-amp / max-tu-size=32 / tu-inter-depth=3 / tu-intra-depth=3 / limit-tu=4 / rdoq-level=2 / dynamic-rd=0.00 / no-ssim-rd / signhide / no-tskip / nr-intra=0 / nr-inter=0 / no-constrained-intra / no-strong-intra-smoothing / max-merge=4 / limit-refs=1 / limit-modes / me=3 / subme=4 / merange=25 / temporal-mvp / no-frame-dup / no-hme / weightp / weightb / no-analyze-src-pics / deblock=-3:-3 / no-sao / no-sao-non-deblock / rd=6 / selective-sao=0 / no-early-skip / rskip / no-fast-intra / no-tskip-fast / no-cu-lossless / b-intra / no-splitrd-skip / rdpenalty=0 / psy-rd=2.00 / psy-rdoq=1.00 / no-rd-refine / no-lossless / cbqpoffs=0 / crqpoffs=0 / rc=crf / crf=17.0 / qcomp=0.65 / qpstep=4 / stats-write=0 / stats-read=0 / vbv-maxrate=80000 / vbv-bufsize=80000 / vbv-init=0.9 / crf-max=0.0 / crf-min=0.0 / ipratio=1.40 / pbratio=1.30 / aq-mode=2 / aq-strength=0.85 / cutree / zone-count=0 / no-strict-cbr / qg-size=32 / no-rc-grain / qpmax=69 / qpmin=0 / no-const-vbv / sar=1 / overscan=0 / videoformat=5 / range=0 / colorprim=1 / transfer=1 / colormatrix=1 / chromaloc=0 / display-window=0 / cll=0,0 / min-luma=0 / max-luma=1023 / log2-max-poc-lsb=8 / vui-timing-info / vui-hrd-info / slices=1 / no-opt-qp-pps / no-opt-ref-list-length-pps / no-multi-pass-opt-rps / scenecut-bias=0.05 / hist-threshold=0.03 / no-opt-cu-delta-qp / no-aq-motion / no-hdr10 / no-hdr10-opt / no-dhdr10-opt / no-idr-recovery-sei / analysis-reuse-level=0 / analysis-save-reuse-level=0 / analysis-load-reuse-level=0 / scale-factor=0 / refine-intra=0 / refine-inter=0 / refine-mv=1 / refine-ctu-distortion=0 / no-limit-sao / ctu-info=0 / no-lowpass-dct / refine-analysis-type=0 / copy-pic=1 / max-ausize-factor=1.0 / no-dynamic-refine / no-single-sei / no-hevc-aq / no-svt / no-field / qp-adaptation-range=1.00 / no-scenecut-aware-qpconformance-window-offsets / right=0 / bottom=0 / NTM4NzU= / decoder-max-rate=0
  35. Language                                 : English
  36. Default                                  : Yes
  37. Forced                                   : No
  38. Color range                              : Limited
  39. Color primaries                          : BT.709
  40. Transfer characteristics                 : BT.709
  41. Matrix coefficients                      : BT.709
  42. Audio #1
  43. ID                                       : 2
  44. Format                                   : DTS XLL
  45. Format/Info                              : Digital Theater Systems
  46. Commercial name                          : DTS-HD Master Audio
  47. Codec ID                                 : A_DTS
  48. Duration                                 : 1 h 37 min
  49. Bit rate mode                            : Variable
  50. Bit rate                                 : 3 750 kb/s
  51. Channel(s)                               : 6 channels
  52. Channel layout                           : C L R Ls Rs LFE
  53. Sampling rate                            : 48.0 kHz
  54. Frame rate                               : 93.750 FPS (512 SPF)
  55. Bit depth                                : 24 bits
  56. Compression mode                         : Lossless
  57. Stream size                              : 2.55 GiB (40%)
  58. Title                                    : English DTS-HD Master Audio 5.1 @ 3750 kbps
  59. Language                                 : English
  60. Default                                  : Yes
  61. Forced                                   : No
  62. Audio #2
  63. ID                                       : 3
  64. Format                                   : AC-3
  65. Format/Info                              : Audio Coding 3
  66. Commercial name                          : Dolby Digital
  67. Codec ID                                 : A_AC3
  68. Duration                                 : 1 h 37 min
  69. Bit rate mode                            : Constant
  70. Bit rate                                 : 640 kb/s
  71. Channel(s)                               : 6 channels
  72. Channel layout                           : L R C LFE Ls Rs
  73. Sampling rate                            : 48.0 kHz
  74. Frame rate                               : 31.250 FPS (1536 SPF)
  75. Compression mode                         : Lossy
  76. Stream size                              : 446 MiB (7%)
  77. Title                                    : Mandarin Dolby Digital Audio 5.1 @ 640 kbps
  78. Language                                 : Chinese
  79. Service kind                             : Complete Main
  80. Default                                  : No
  81. Forced                                   : No
  82. Audio #3
  83. ID                                       : 4
  84. Format                                   : AC-3
  85. Format/Info                              : Audio Coding 3
  86. Commercial name                          : Dolby Digital
  87. Codec ID                                 : A_AC3
  88. Duration                                 : 1 h 37 min
  89. Bit rate mode                            : Constant
  90. Bit rate                                 : 640 kb/s
  91. Channel(s)                               : 6 channels
  92. Channel layout                           : L R C LFE Ls Rs
  93. Sampling rate                            : 48.0 kHz
  94. Frame rate                               : 31.250 FPS (1536 SPF)
  95. Compression mode                         : Lossy
  96. Stream size                              : 446 MiB (7%)
  97. Title                                    : Cantonese Dolby Digital Audio 5.1 @ 640 kbps
  98. Language                                 : Chinese
  99. Service kind                             : Complete Main
  100. Default                                  : No
  101. Forced                                   : No
  102. Audio #4
  103. ID                                       : 5
  104. Format                                   : AC-3
  105. Format/Info                              : Audio Coding 3
  106. Commercial name                          : Dolby Digital
  107. Codec ID                                 : A_AC3
  108. Duration                                 : 1 h 37 min
  109. Bit rate mode                            : Constant
  110. Bit rate                                 : 192 kb/s
  111. Channel(s)                               : 2 channels
  112. Channel layout                           : L R
  113. Sampling rate                            : 48.0 kHz
  114. Frame rate                               : 31.250 FPS (1536 SPF)
  115. Compression mode                         : Lossy
  116. Stream size                              : 134 MiB (2%)
  117. Title                                    : English Dolby Digital Audio 2.0 @ 192 kbps  Commentary
  118. Language                                 : Chinese
  119. Service kind                             : Complete Main
  120. Default                                  : No
  121. Forced                                   : No
  122. Text #1
  123. ID                                       : 6
  124. Format                                   : PGS
  125. Codec ID                                 : S_HDMV/PGS
  126. Codec ID/Info                            : Picture based subtitle format used on BDs/HD-DVDs
  127. Duration                                 : 1 h 29 min
  128. Bit rate                                 : 44.8 kb/s
  129. Count of elements                        : 2622
  130. Stream size                              : 28.7 MiB (0%)
  131. Title                                    : Eng/SUP
  132. Language                                 : English
  133. Default                                  : No
  134. Forced                                   : No
  135. Text #2
  136. ID                                       : 7
  137. Format                                   : PGS
  138. Codec ID                                 : S_HDMV/PGS
  139. Codec ID/Info                            : Picture based subtitle format used on BDs/HD-DVDs
  140. Duration                                 : 1 h 29 min
  141. Bit rate                                 : 30.4 kb/s
  142. Count of elements                        : 2626
  143. Stream size                              : 19.5 MiB (0%)
  144. Title                                    : Cht/SUP  原盘繁体
  145. Language                                 : Chinese
  146. Default                                  : No
  147. Forced                                   : No
  148. Text #3
  149. ID                                       : 8
  150. Format                                   : PGS
  151. Codec ID                                 : S_HDMV/PGS
  152. Codec ID/Info                            : Picture based subtitle format used on BDs/HD-DVDs
  153. Duration                                 : 1 h 29 min
  154. Bit rate                                 : 32.2 kb/s
  155. Count of elements                        : 2664
  156. Stream size                              : 20.6 MiB (0%)
  157. Title                                    : Chs/SUP  原盘简体
  158. Language                                 : Chinese
  159. Default                                  : Yes
  160. Forced                                   : No
  161. Text #4
  162. ID                                       : 9
  163. Format                                   : PGS
  164. Codec ID                                 : S_HDMV/PGS
  165. Codec ID/Info                            : Picture based subtitle format used on BDs/HD-DVDs
  166. Duration                                 : 1 h 37 min
  167. Bit rate                                 : 63.5 kb/s
  168. Count of elements                        : 4288
  169. Stream size                              : 44.2 MiB (1%)
  170. Title                                    : Cht/SUP  原盘繁体  Commentary
  171. Language                                 : Chinese
  172. Default                                  : No
  173. Forced                                   : No
  174. Text #5
  175. ID                                       : 10
  176. Format                                   : PGS
  177. Codec ID                                 : S_HDMV/PGS
  178. Codec ID/Info                            : Picture based subtitle format used on BDs/HD-DVDs
  179. Duration                                 : 1 h 37 min
  180. Bit rate                                 : 64.0 kb/s
  181. Count of elements                        : 4288
  182. Stream size                              : 44.6 MiB (1%)
  183. Title                                    : Chs/SUP  原盘简体  Commentary
  184. Language                                 : Chinese
  185. Default                                  : No
  186. Forced                                   : No
  187. Text #6
  188. ID                                       : 11
  189. Format                                   : PGS
  190. Codec ID                                 : S_HDMV/PGS
  191. Codec ID/Info                            : Picture based subtitle format used on BDs/HD-DVDs
  192. Duration                                 : 1 h 30 min
  193. Bit rate                                 : 386 b/s
  194. Count of elements                        : 76
  195. Stream size                              : 256 KiB (0%)
  196. Title                                    : Cht/SUP  原盘纯正文繁体
  197. Language                                 : Chinese
  198. Default                                  : No
  199. Forced                                   : No
  200. Text #7
  201. ID                                       : 12
  202. Format                                   : PGS
  203. Codec ID                                 : S_HDMV/PGS
  204. Codec ID/Info                            : Picture based subtitle format used on BDs/HD-DVDs
  205. Duration                                 : 1 h 29 min
  206. Bit rate                                 : 34.9 kb/s
  207. Count of elements                        : 2620
  208. Stream size                              : 22.4 MiB (0%)
  209. Title                                    : Cht/SUP  原盘繁体
  210. Language                                 : Chinese
  211. Default                                  : No
  212. Forced                                   : No
  213. Text #8
  214. ID                                       : 13
  215. Format                                   : PGS
  216. Codec ID                                 : S_HDMV/PGS
  217. Codec ID/Info                            : Picture based subtitle format used on BDs/HD-DVDs
  218. Duration                                 : 1 h 29 min
  219. Bit rate                                 : 33.6 kb/s
  220. Count of elements                        : 2612
  221. Stream size                              : 21.6 MiB (0%)
  222. Title                                    : Chs/SUP  原盘简体
  223. Language                                 : Chinese
  224. Default                                  : No
  225. Forced                                   : No
  226. Text #9
  227. ID                                       : 14
  228. Format                                   : PGS
  229. Codec ID                                 : S_HDMV/PGS
  230. Codec ID/Info                            : Picture based subtitle format used on BDs/HD-DVDs
  231. Duration                                 : 1 h 30 min
  232. Bit rate                                 : 343 b/s
  233. Count of elements                        : 76
  234. Stream size                              : 228 KiB (0%)
  235. Title                                    : Chs/SUP  原盘纯正文简体
  236. Language                                 : Chinese
  237. Default                                  : No
  238. Forced                                   : No
  239. Menu
  240. 00:00:00.000                             : en:第 01 章
  241. 00:03:57.779                             : en:第 02 章
  242. 00:07:16.436                             : en:第 03 章
  243. 00:12:05.391                             : en:第 04 章
  244. 00:17:45.481                             : en:第 05 章
  245. 00:22:04.698                             : en:第 06 章
  246. 00:26:47.189                             : en:第 07 章
  247. 00:31:22.047                             : en:第 08 章
  248. 00:35:49.105                             : en:第 09 章
  249. 00:41:11.803                             : en:第 10 章
  250. 00:44:30.584                             : en:第 11 章
  251. 00:50:37.868                             : en:第 12 章
  252. 00:54:52.956                             : en:第 13 章
  253. 01:00:08.772                             : en:第 14 章
  254. 01:07:21.496                             : en:第 15 章
  255. 01:13:34.535                             : en:第 16 章
  256. 01:21:50.697                             : en:第 17 章
  257. 01:24:23.767                             : en:第 18 章
  258. 01:27:06.638                             : en:第 19 章
  259. 01:30:28.423                             : en:第 20 章
复制代码

















保举请利用qBittorrent,utorrent,transmission等标准BT软件下载!以获得最快速度。奉求保种!





回复

使用道具 举报

懒得打字嘛,点击右侧快捷回复 【右侧内容,后台自定义】
您需要登录后才可以回帖 登录 | 立即加入

本版积分规则

Archiver|小黑屋| 蓝光电影网 |网站地图

Copyright © 2021 Comsenz Inc. Powered by 蓝光电影网

蓝光电影网

本站内容由用户自主分享和转载自互联网,转载目的在于传递更多信息,并不代表本网赞同其观点和对其真实性负责。

如有侵权、违反国家法律政策行为,请联系我们,我们会第一时间及时清除和处理!

举报反馈邮箱:4k1080.com@gmail.com

快速回复 返回顶部 返回列表