找回密码

蓝光电影网

查看: 173|回复: 3

[2160p] 空前绝后满天飞2:瞒天过海飞飞飞 Airplane.II.The.Sequel.1982.2160p.WEB-DL.AAC2.0.DV.MP4.x265-DVSUX 14.73GB

[复制链接]
蓝光币
886
发表于 7 天前 | 显示全部楼层 |阅读模式


◎标  题 空前绝后满天飞2:瞒天过海飞飞飞
◎译  名 空前绝后满天飞续集
◎片  名 Airplane II: The Sequel
◎年  代 1982
◎产  地 美国
◎类  别 笑剧 / 科幻
◎语  言 英语
◎上映日期 1982-12-10(美国)
◎IMDb评分 6.2/10 (51312人评价)
◎IMDb链接 https://www.imdb.com/title/tt0083530/
◎豆瓣评分 7.0/10 (2900人评价)
◎豆瓣链接 https://movie.douban.com/subject/1298727/
◎片  长 85 分钟
◎导  演 肯·芬克尔曼 Ken Finkleman
◎编  剧 肯·芬克尔曼 Ken Finkleman
◎演  员 朱丽·哈基提 Julie Hagerty
       罗伯特·海斯 Robert Hays
       劳埃德·布里吉斯 Lloyd Bridges
       查德·艾微特 Chad Everett
       皮特·格拉维斯 Peter Graves
       詹姆斯·诺贝尔 James Noble
       Gail Matthius Gail Matthius
       肯特·麦科德 Kent McCord
       Tom McGreevey Tom McGreevey
       约翰·拉尔克 John Larch
       戴维·莱热 David Leisure
       Jack Jones Jack Jones
       理查德·吉祥兰德 Richard Gilliland
       Hugh Gillin Hugh Gillin
       路易斯·基亚姆布拉沃 Louis Giambalvo
       Wendy Phillips Wendy Phillips
       Ann Nelson Ann Nelson
       李·帕特森 Lee Patterson
       Stephen Stucker Stephen Stucker
       Elisa Goodman Elisa Goodman
       肯·芬克尔曼 Ken Finkleman
       雷蒙德·布尔 Raymond Burr
       小詹姆斯·A·沃森 James A. Watson Jr.
       Sandy Ward Sandy Ward
       Mary Mon Toy Mary Mon Toy
       路易丝·索莱尔 Louise Sorel
       Hank Robinson Hank Robinson
       Pat Sajak Pat Sajak
       Kenneth O'Brien Kenneth O'Brien
       Marcy Lafferty Marcy Lafferty
       Martin Garner Martin Garner
       布鲁斯·弗兰奇 Bruce French
       约翰·帕拉贡 John Paragon
       约翰·德纳 John Dehner
       Maurice Hill Maurice Hill
       约翰·汉考克 John Hancock
       劳伦妮·兰登 Laurene Landon
       约翰·沃侬 John Vernon
       乔治·温迪特 George Wendt
       瑞克·欧弗顿 Rick Overton
       Ricky Powell Ricky Powell
       莫妮卡·加布里埃尔 Monique Gabrielle
       雷普·汤恩 Rip Torn
       Craig Berenson Craig Berenson
       桑尼·波诺 Sonny Bono
       查克·康诺斯 Chuck Connors
       桑达·伯格曼 Sandahl Bergman
       赫夫·维勒查泽 Hervé Villechaize
       Art Fleming Art Fleming
       Gary Faga Gary Faga
       Joyce DeWitt Joyce DeWitt
       李·布莱恩特 Lee Bryant
       帕特里克·卡利顿 Patrick Culliton
       迈克尔·柯里 Michael Currie
       博克伯恩斯 Burke Byrnes
       杰克·伯纳迪 Jack Bernardi
       阿尔·伯恩 Earl Boen
       莱昂·阿斯金 Leon Askin
       Frank Ashmore Frank Ashmore
       山姆·安德森 Sam Anderson
       小猫娜提雅维达 Kitten Natividad
       理查德·杰克尔 Richard Jaeckel
       李·珀塞尔 Lee Purcell
       大卫·佩默 David Paymer
       威廉·夏特纳 William Shatner
◎标  签 笑剧 / 美国 / 无厘头 / 恶搞 / 搞笑 / 1982 / 科幻 / 美国电影
◎简  介

    此次,多量乘客分开地球,乘坐第一艘民用太空梭直飞月球,但是机上有个炸弹怪客,太空梭就快要被炸开了,加上引擎又故障,可是最糟的却是飞机上发现他们没有咖啡可喝。
  1. Video
  2. ID                                       : 1
  3. Format                                   : HEVC
  4. Format/Info                              : High Efficiency Video Coding
  5. Format profile                           : Main [email protected]@High
  6. HDR format                               : Dolby Vision, Version 1.0, dvhe.05.06, BL+RPU
  7. Codec ID                                 : dvhe
  8. Codec ID/Info                            : High Efficiency Video Coding with Dolby Vision
  9. Duration                                 : 1 h 24 min
  10. Bit rate                                 : 24.9 Mb/s
  11. Width                                    : 3 840 pixels
  12. Height                                   : 2 080 pixels
  13. Original height                          : 2 076 pixels
  14. Display aspect ratio                     : 1.85:1
  15. Original display aspect ratio            : 1.85:1
  16. Frame rate mode                          : Constant
  17. Frame rate                               : 23.976 (24000/1001/189150) FPS
  18. Color space                              : YUV
  19. Chroma subsampling                       : 4:2:0
  20. Bit depth                                : 10 bits
  21. Bits/(Pixel*Frame)                       : 0.130
  22. Stream size                              : 14.7 GiB (99%)
  23. Default                                  : Yes
  24. Alternate group                          : 1
  25. Encoded date                             : UTC 2022-08-05 13:14:37
  26. Tagged date                              : UTC 2022-08-05 13:18:19
  27. Codec configuration box                  : hvcC+dvcC
  28. Audio
  29. ID                                       : 2
  30. Format                                   : AAC LC
  31. Format/Info                              : Advanced Audio Codec Low Complexity
  32. Codec ID                                 : mp4a-40-2
  33. Duration                                 : 1 h 24 min
  34. Bit rate mode                            : Variable
  35. Bit rate                                 : 123 kb/s
  36. Maximum bit rate                         : 133 kb/s / 123 kb/s
  37. Channel(s)                               : 2 channels
  38. Channel layout                           : L R
  39. Sampling rate                            : 48.0 kHz
  40. Frame rate                               : 46.875 FPS (1024 SPF)
  41. Compression mode                         : Lossy
  42. Stream size                              : 74.1 MiB (0%)
  43. Title                                    : English
  44. Language                                 : English
  45. Default                                  : Yes
  46. Alternate group                          : 1
  47. Tagged date                              : UTC 2022-08-05 13:18:19
  48. Text #1
  49. ID                                       : 3
  50. Format                                   : Timed Text
  51. Codec ID                                 : tx3g
  52. Duration                                 : 1 h 23 min
  53. Bit rate mode                            : Variable
  54. Bit rate                                 : 92 b/s
  55. Frame rate                               : 0.745 FPS
  56. Stream size                              : 56.5 KiB (0%)
  57. Title                                    : English
  58. Language                                 : English
  59. Forced                                   : No
  60. Encoded date                             : UTC 2022-08-05 13:18:17
  61. Tagged date                              : UTC 2022-08-05 13:18:19
  62. Text #2
  63. ID                                       : 4
  64. Format                                   : Timed Text
  65. Codec ID                                 : tx3g
  66. Duration                                 : 1 h 23 min
  67. Bit rate mode                            : Variable
  68. Bit rate                                 : 130 b/s
  69. Frame rate                               : 0.469 FPS
  70. Stream size                              : 79.6 KiB (0%)
  71. Title                                    : Greek
  72. Language                                 : Greek
  73. Forced                                   : No
  74. Encoded date                             : UTC 2022-08-05 13:18:17
  75. Tagged date                              : UTC 2022-08-05 13:18:19
复制代码




                                       
                                       

                                       
                                       
                                       




回复

使用道具 举报

蓝光币
3
发表于 6 天前 | 显示全部楼层

~ 珍惜+支持 ~
回复

使用道具 举报

蓝光币
63
发表于 6 天前 | 显示全部楼层
66666666666666666666666666666
回复 支持 反对

使用道具 举报

蓝光币
176
发表于 6 天前 | 显示全部楼层

既然你诚信诚意的推荐了,那我就勉为其难的看看吧!蓝光电影网不走平凡路。
回复 支持 反对

使用道具 举报

懒得打字嘛,点击右侧快捷回复 【右侧内容,后台自定义】
您需要登录后才可以回帖 登录 | 立即加入

本版积分规则

Archiver|小黑屋| 蓝光电影网 |网站地图

Copyright © 2021 Comsenz Inc. Powered by 蓝光电影网

蓝光电影网

本站内容由用户自主分享和转载自互联网,转载目的在于传递更多信息,并不代表本网赞同其观点和对其真实性负责。

如有侵权、违反国家法律政策行为,请联系我们,我们会第一时间及时清除和处理!

举报反馈邮箱:[email protected]

快速回复 返回顶部 返回列表