找回密码

蓝光电影网

查看: 147|回复: 4

[2160p] 空前绝后满天飞 Airplane.1980.2160p.WEB-DL.x265.10bit.HDR.DTS-HD.MA.5.1-NOGRP 17.79GB

[复制链接]
蓝光币
894
发表于 2022-8-6 11:08:14 | 显示全部楼层 |阅读模式


◎标  题 空前绝后满天飞
◎译  名 逢凶化吉满天飞 / 飞机!
◎片  名 Airplane!
◎年  代 1980
◎产  地 美国
◎类  别 笑剧
◎语  言 英语
◎上映日期 1980-07-02(美国)
◎IMDb评分 7.7/10 (226862人评价)
◎IMDb链接 https://www.imdb.com/title/tt0080339/
◎豆瓣评分 7.5/10 (15633人评价)
◎豆瓣链接 https://movie.douban.com/subject/1292785/
◎片  长 88 分钟
◎导  演 大卫·扎克 David Zucker
       杰瑞·扎克 Jerry Zucker
       吉姆·艾布拉姆斯 Jim Abrahams
◎编  剧 吉姆·艾布拉姆斯 Jim Abrahams
       大卫·扎克 David Zucker
       杰瑞·扎克 Jerry Zucker
       亚瑟·黑利 Arthur Hailey
       霍尔·巴特利特 Hall Bartlett
       约翰·C·钱皮恩 John C. Champion
◎演  员 卡里姆·阿卜杜尔-贾巴尔 Kareem Abdul-Jabbar
       劳埃德·布里吉斯 Lloyd Bridges
       皮特·格拉维斯 Peter Graves
       朱丽·哈基提 Julie Hagerty
       罗伯特·海斯 Robert Hays
       莱斯利·尼尔森 Leslie Nielsen
       Lorna Patterson Lorna Patterson
       拉里·布雷克 Larry Blake
       埃尔默·伯恩斯坦 Elmer Bernstein
       Patrick Kennedy Patrick Kennedy
       Joel Thurm Joel Thurm
       瓦尔德·普雷斯顿 Ward Preston
       Anne D. McCulley Anne D. McCulley
       罗珊娜·诺顿 Rosanna Norton
       Joan Phillips Joan Phillips
       Edwin Butterworth Edwin Butterworth
       丹尼尔·艾提奥斯 Daniel Attias
       彼得·库兰 Peter Kuran
       Richard O. Helmer Richard O. Helmer
       克里斯托弗·S·罗斯 Christopher S. Ross
◎标  签 笑剧 / 美国 / 无厘头 / 恶搞 / 搞笑 / 1980 / 荒诞 / 美国电影
◎简  介

  前飞翔员Ted Striker (罗伯特·海斯 Robert Hays 饰)在一场战争中有了心理阴影,对飞翔有恐惧。他的女友Elaine Dickinson (朱丽·哈基提 Julie Hagerty饰)却是个空姐。此日,Elaine跟Ted提出了分手,以后便上飞机上班 去了。Ted为了挽回女友的心,也费尽心机上了飞机。但是,飞机上发生了无数使人啼笑皆非的工作。先是乘客们相继发生食品中毒,连机长也不能幸免于难。无法之下,唯一有驾驶飞机履历的Ted只能和女友一路坐在驾驶舱操纵飞机。他翻开了自动驾驶,飞性可以自交运转,但没法一般下降。因而一场惊心动魄的迫降之旅起头了,而Ted能否能重新赢回女友的心呢?                                    
                                本片各类无厘头桥段让人捧腹大笑,成为好莱坞典范笑剧。
  1. Video
  2. ID                                       : 1
  3. Format                                   : HEVC
  4. Format/Info                              : High Efficiency Video Coding
  5. Format profile                           : Main [email protected]@High
  6. HDR format                               : SMPTE ST 2086, HDR10 compatible
  7. Codec ID                                 : V_MPEGH/ISO/HEVC
  8. Duration                                 : 1 h 27 min
  9. Bit rate                                 : 24.8 Mb/s
  10. Width                                    : 3 840 pixels
  11. Height                                   : 2 160 pixels
  12. Display aspect ratio                     : 16:9
  13. Frame rate mode                          : Constant
  14. Frame rate                               : 23.976 FPS
  15. Color space                              : YUV
  16. Chroma subsampling                       : 4:2:0 (Type 2)
  17. Bit depth                                : 10 bits
  18. Bits/(Pixel*Frame)                       : 0.125
  19. Stream size                              : 15.2 GiB (86%)
  20. Default                                  : Yes
  21. Forced                                   : No
  22. Color range                              : Limited
  23. Color primaries                          : BT.2020
  24. Transfer characteristics                 : PQ
  25. Matrix coefficients                      : BT.2020 non-constant
  26. Mastering display color primaries        : Display P3
  27. Mastering display luminance              : min: 0.0050 cd/m2, max: 1000 cd/m2
  28. Maximum Content Light Level              : 3157 cd/m2
  29. Maximum Frame-Average Light Level        : 427 cd/m2

  30. Audio #1
  31. ID                                       : 2
  32. ID in the original source medium         : 4352 (0x1100)
  33. Format                                   : DTS XLL
  34. Format/Info                              : Digital Theater Systems
  35. Commercial name                          : DTS-HD Master Audio
  36. Codec ID                                 : A_DTS
  37. Duration                                 : 1 h 27 min
  38. Bit rate mode                            : Variable
  39. Bit rate                                 : 3 739 kb/s
  40. Channel(s)                               : 6 channels
  41. Channel layout                           : C L R Ls Rs LFE
  42. Sampling rate                            : 48.0 kHz
  43. Frame rate                               : 93.750 FPS (512 SPF)
  44. Bit depth                                : 24 bits
  45. Compression mode                         : Lossless
  46. Stream size                              : 2.29 GiB (13%)
  47. Title                                    : DTS-HD MA 5.1
  48. Language                                 : English
  49. Default                                  : Yes
  50. Forced                                   : No
  51. Original source medium                   : Blu-ray

  52. Audio #2
  53. ID                                       : 3
  54. Format                                   : AC-3
  55. Format/Info                              : Audio Coding 3
  56. Commercial name                          : Dolby Digital
  57. Codec ID                                 : A_AC3
  58. Duration                                 : 1 h 27 min
  59. Bit rate mode                            : Constant
  60. Bit rate                                 : 384 kb/s
  61. Channel(s)                               : 6 channels
  62. Channel layout                           : L R C LFE Ls Rs
  63. Sampling rate                            : 48.0 kHz
  64. Frame rate                               : 31.250 FPS (1536 SPF)
  65. Compression mode                         : Lossy
  66. Stream size                              : 241 MiB (1%)
  67. Title                                    : DD 5.1
  68. Language                                 : English
  69. Service kind                             : Complete Main
  70. Default                                  : No
  71. Forced                                   : No

  72. Text #1
  73. ID                                       : 4
  74. Format                                   : UTF-8
  75. Codec ID                                 : S_TEXT/UTF8
  76. Codec ID/Info                            : UTF-8 Plain Text
  77. Duration                                 : 1 h 25 min
  78. Bit rate                                 : 67 b/s
  79. Frame rate                               : 0.209 FPS
  80. Count of elements                        : 1079
  81. Stream size                              : 42.6 KiB (0%)
  82. Language                                 : English
  83. Default                                  : Yes
  84. Forced                                   : No

  85. Text #2
  86. ID                                       : 5
  87. Format                                   : UTF-8
  88. Codec ID                                 : S_TEXT/UTF8
  89. Codec ID/Info                            : UTF-8 Plain Text
  90. Duration                                 : 1 h 25 min
  91. Bit rate                                 : 86 b/s
  92. Frame rate                               : 0.186 FPS
  93. Count of elements                        : 959
  94. Stream size                              : 54.4 KiB (0%)
  95. Title                                    : Arabic
  96. Language                                 : Arabic
  97. Default                                  : No
  98. Forced                                   : No

  99. Text #3
  100. ID                                       : 6
  101. Format                                   : UTF-8
  102. Codec ID                                 : S_TEXT/UTF8
  103. Codec ID/Info                            : UTF-8 Plain Text
  104. Duration                                 : 1 h 25 min
  105. Bit rate                                 : 48 b/s
  106. Frame rate                               : 0.174 FPS
  107. Count of elements                        : 898
  108. Stream size                              : 30.4 KiB (0%)
  109. Title                                    : Chinese Mandarin Traditional
  110. Language                                 : Chinese
  111. Default                                  : No
  112. Forced                                   : No

  113. Text #4
  114. ID                                       : 7
  115. Format                                   : UTF-8
  116. Codec ID                                 : S_TEXT/UTF8
  117. Codec ID/Info                            : UTF-8 Plain Text
  118. Duration                                 : 1 h 25 min
  119. Bit rate                                 : 58 b/s
  120. Frame rate                               : 0.187 FPS
  121. Count of elements                        : 965
  122. Stream size                              : 36.6 KiB (0%)
  123. Title                                    : Danish
  124. Language                                 : Danish
  125. Default                                  : No
  126. Forced                                   : No

  127. Text #5
  128. ID                                       : 8
  129. Format                                   : UTF-8
  130. Codec ID                                 : S_TEXT/UTF8
  131. Codec ID/Info                            : UTF-8 Plain Text
  132. Duration                                 : 1 h 25 min
  133. Bit rate                                 : 65 b/s
  134. Frame rate                               : 0.186 FPS
  135. Count of elements                        : 959
  136. Stream size                              : 41.2 KiB (0%)
  137. Title                                    : Spanish European
  138. Language                                 : Spanish
  139. Default                                  : No
  140. Forced                                   : No

  141. Text #6
  142. ID                                       : 9
  143. Format                                   : UTF-8
  144. Codec ID                                 : S_TEXT/UTF8
  145. Codec ID/Info                            : UTF-8 Plain Text
  146. Duration                                 : 1 h 25 min
  147. Bit rate                                 : 55 b/s
  148. Frame rate                               : 0.187 FPS
  149. Count of elements                        : 967
  150. Stream size                              : 34.9 KiB (0%)
  151. Title                                    : Finnish
  152. Language                                 : Finnish
  153. Default                                  : No
  154. Forced                                   : No

  155. Text #7
  156. ID                                       : 10
  157. Format                                   : UTF-8
  158. Codec ID                                 : S_TEXT/UTF8
  159. Codec ID/Info                            : UTF-8 Plain Text
  160. Duration                                 : 1 h 26 min
  161. Bit rate                                 : 70 b/s
  162. Frame rate                               : 0.236 FPS
  163. Count of elements                        : 1224
  164. Stream size                              : 44.6 KiB (0%)
  165. Title                                    : French European
  166. Language                                 : French
  167. Default                                  : No
  168. Forced                                   : No

  169. Text #8
  170. ID                                       : 11
  171. Format                                   : UTF-8
  172. Codec ID                                 : S_TEXT/UTF8
  173. Codec ID/Info                            : UTF-8 Plain Text
  174. Duration                                 : 1 h 25 min
  175. Bit rate                                 : 76 b/s
  176. Frame rate                               : 0.190 FPS
  177. Count of elements                        : 978
  178. Stream size                              : 48.2 KiB (0%)
  179. Title                                    : Hebrew
  180. Language                                 : Hebrew
  181. Default                                  : No
  182. Forced                                   : No

  183. Text #9
  184. ID                                       : 12
  185. Format                                   : UTF-8
  186. Codec ID                                 : S_TEXT/UTF8
  187. Codec ID/Info                            : UTF-8 Plain Text
  188. Duration                                 : 1 h 25 min
  189. Bit rate                                 : 57 b/s
  190. Frame rate                               : 0.187 FPS
  191. Count of elements                        : 966
  192. Stream size                              : 35.9 KiB (0%)
  193. Title                                    : Dutch
  194. Language                                 : Dutch
  195. Default                                  : No
  196. Forced                                   : No

  197. Text #10
  198. ID                                       : 13
  199. Format                                   : UTF-8
  200. Codec ID                                 : S_TEXT/UTF8
  201. Codec ID/Info                            : UTF-8 Plain Text
  202. Duration                                 : 1 h 25 min
  203. Bit rate                                 : 58 b/s
  204. Frame rate                               : 0.188 FPS
  205. Count of elements                        : 972
  206. Stream size                              : 37.0 KiB (0%)
  207. Title                                    : Norwegian
  208. Language                                 : Norwegian
  209. Default                                  : No
  210. Forced                                   : No

  211. Text #11
  212. ID                                       : 14
  213. Format                                   : UTF-8
  214. Codec ID                                 : S_TEXT/UTF8
  215. Codec ID/Info                            : UTF-8 Plain Text
  216. Duration                                 : 1 h 25 min
  217. Bit rate                                 : 63 b/s
  218. Frame rate                               : 0.187 FPS
  219. Count of elements                        : 967
  220. Stream size                              : 40.3 KiB (0%)
  221. Title                                    : Portuguese European
  222. Language                                 : Portuguese
  223. Default                                  : No
  224. Forced                                   : No

  225. Text #12
  226. ID                                       : 15
  227. Format                                   : UTF-8
  228. Codec ID                                 : S_TEXT/UTF8
  229. Codec ID/Info                            : UTF-8 Plain Text
  230. Duration                                 : 1 h 25 min
  231. Bit rate                                 : 115 b/s
  232. Frame rate                               : 0.243 FPS
  233. Count of elements                        : 1252
  234. Stream size                              : 72.9 KiB (0%)
  235. Title                                    : Russian
  236. Language                                 : Russian
  237. Default                                  : No
  238. Forced                                   : No

  239. Text #13
  240. ID                                       : 16
  241. Format                                   : UTF-8
  242. Codec ID                                 : S_TEXT/UTF8
  243. Codec ID/Info                            : UTF-8 Plain Text
  244. Duration                                 : 1 h 25 min
  245. Bit rate                                 : 60 b/s
  246. Frame rate                               : 0.187 FPS
  247. Count of elements                        : 963
  248. Stream size                              : 37.9 KiB (0%)
  249. Title                                    : Swedish
  250. Language                                 : Swedish
  251. Default                                  : No
  252. Forced                                   : No

  253. Text #14
  254. ID                                       : 17
  255. Format                                   : UTF-8
  256. Codec ID                                 : S_TEXT/UTF8
  257. Codec ID/Info                            : UTF-8 Plain Text
  258. Duration                                 : 1 h 25 min
  259. Bit rate                                 : 149 b/s
  260. Frame rate                               : 0.175 FPS
  261. Count of elements                        : 903
  262. Stream size                              : 94.1 KiB (0%)
  263. Title                                    : Thai
  264. Language                                 : Thai
  265. Default                                  : No
  266. Forced                                   : No

  267. Text #15
  268. ID                                       : 18
  269. Format                                   : UTF-8
  270. Codec ID                                 : S_TEXT/UTF8
  271. Codec ID/Info                            : UTF-8 Plain Text
  272. Duration                                 : 1 h 25 min
  273. Bit rate                                 : 56 b/s
  274. Frame rate                               : 0.186 FPS
  275. Count of elements                        : 957
  276. Stream size                              : 35.6 KiB (0%)
  277. Title                                    : Turkish
  278. Language                                 : Turkish
  279. Default                                  : No
  280. Forced                                   : No

  281. Text #16
  282. ID                                       : 19
  283. ID in the original source medium         : 4608 (0x1200)
  284. Format                                   : PGS
  285. Muxing mode                              : zlib
  286. Codec ID                                 : S_HDMV/PGS
  287. Codec ID/Info                            : Picture based subtitle format used on BDs/HD-DVDs
  288. Duration                                 : 1 h 25 min
  289. Bit rate                                 : 41.9 kb/s
  290. Frame rate                               : 0.420 FPS
  291. Count of elements                        : 2168
  292. Stream size                              : 25.7 MiB (0%)
  293. Language                                 : English
  294. Default                                  : No
  295. Forced                                   : No
  296. Original source medium                   : Blu-ray

  297. Text #17
  298. ID                                       : 20
  299. ID in the original source medium         : 4609 (0x1201)
  300. Format                                   : PGS
  301. Muxing mode                              : zlib
  302. Codec ID                                 : S_HDMV/PGS
  303. Codec ID/Info                            : Picture based subtitle format used on BDs/HD-DVDs
  304. Duration                                 : 1 h 26 min
  305. Bit rate                                 : 45.1 kb/s
  306. Frame rate                               : 0.486 FPS
  307. Count of elements                        : 2535
  308. Stream size                              : 28.0 MiB (0%)
  309. Title                                    : SDH
  310. Language                                 : English
  311. Default                                  : No
  312. Forced                                   : No
  313. Original source medium                   : Blu-ray

  314. Text #18
  315. ID                                       : 21
  316. ID in the original source medium         : 4610 (0x1202)
  317. Format                                   : PGS
  318. Muxing mode                              : zlib
  319. Codec ID                                 : S_HDMV/PGS
  320. Codec ID/Info                            : Picture based subtitle format used on BDs/HD-DVDs
  321. Duration                                 : 1 h 26 min
  322. Bit rate                                 : 40.9 kb/s
  323. Frame rate                               : 0.384 FPS
  324. Count of elements                        : 1998
  325. Stream size                              : 25.4 MiB (0%)
  326. Language                                 : German
  327. Default                                  : No
  328. Forced                                   : No
  329. Original source medium                   : Blu-ray

  330. Text #19
  331. ID                                       : 22
  332. ID in the original source medium         : 4611 (0x1203)
  333. Format                                   : PGS
  334. Muxing mode                              : zlib
  335. Codec ID                                 : S_HDMV/PGS
  336. Codec ID/Info                            : Picture based subtitle format used on BDs/HD-DVDs
  337. Duration                                 : 1 h 26 min
  338. Bit rate                                 : 40.9 kb/s
  339. Frame rate                               : 0.471 FPS
  340. Count of elements                        : 2445
  341. Stream size                              : 25.3 MiB (0%)
  342. Language                                 : French
  343. Default                                  : No
  344. Forced                                   : No
  345. Original source medium                   : Blu-ray

  346. Text #20
  347. ID                                       : 23
  348. ID in the original source medium         : 4612 (0x1204)
  349. Format                                   : PGS
  350. Muxing mode                              : zlib
  351. Codec ID                                 : S_HDMV/PGS
  352. Codec ID/Info                            : Picture based subtitle format used on BDs/HD-DVDs
  353. Duration                                 : 1 h 25 min
  354. Bit rate                                 : 23.7 kb/s
  355. Frame rate                               : 0.355 FPS
  356. Count of elements                        : 1830
  357. Stream size                              : 14.6 MiB (0%)
  358. Language                                 : Japanese
  359. Default                                  : No
  360. Forced                                   : No
  361. Original source medium                   : Blu-ray

  362. Menu
  363. 00:00:00.000                             : en:Chapter 01
  364. 00:04:27.517                             : en:Chapter 02
  365. 00:07:03.214                             : en:Chapter 03
  366. 00:10:37.554                             : en:Chapter 04
  367. 00:13:19.883                             : en:Chapter 05
  368. 00:15:46.321                             : en:Chapter 06
  369. 00:21:40.759                             : en:Chapter 07
  370. 00:24:49.239                             : en:Chapter 08
  371. 00:27:05.583                             : en:Chapter 09
  372. 00:30:43.218                             : en:Chapter 10
  373. 00:33:13.284                             : en:Chapter 11
  374. 00:35:51.109                             : en:Chapter 12
  375. 00:40:41.775                             : en:Chapter 13
  376. 00:45:47.205                             : en:Chapter 14
  377. 00:48:37.042                             : en:Chapter 15
  378. 00:51:10.945                             : en:Chapter 16
  379. 00:54:06.788                             : en:Chapter 17
  380. 00:56:15.709                             : en:Chapter 18
  381. 00:58:41.563                             : en:Chapter 19
  382. 01:01:58.551                             : en:Chapter 20
  383. 01:06:46.214                             : en:Chapter 21
  384. 01:10:37.237                             : en:Chapter 22
  385. 01:12:15.794                             : en:Chapter 23
  386. 01:15:27.235                             : en:Chapter 24
  387. 01:19:56.338                             : en:Chapter 25
  388. 01:23:01.231                             : en:Chapter 26
复制代码




                                       
                                       

                                       
                                       
                                       




回复

使用道具 举报

蓝光币
1793
发表于 2022-8-6 11:54:09 | 显示全部楼层
太好啦&萬分感謝版主的無私發佈分享%
回复 支持 反对

使用道具 举报

蓝光币
1894
发表于 2022-8-6 14:06:54 | 显示全部楼层

这东西我收了!谢谢楼主!蓝光电影网真好!
回复 支持 反对

使用道具 举报

蓝光币
336
发表于 2022-8-6 18:20:27 | 显示全部楼层

楼主太厉害了!楼主,电影应该很好看我觉得蓝光电影网真是个好地方!
回复 支持 反对

使用道具 举报

蓝光币
205
发表于 2022-8-6 20:25:45 | 显示全部楼层
感谢分享
回复

使用道具 举报

懒得打字嘛,点击右侧快捷回复 【右侧内容,后台自定义】
您需要登录后才可以回帖 登录 | 立即加入

本版积分规则

Archiver|小黑屋| 蓝光电影网 |网站地图

Copyright © 2021 Comsenz Inc. Powered by 蓝光电影网

蓝光电影网

本站内容由用户自主分享和转载自互联网,转载目的在于传递更多信息,并不代表本网赞同其观点和对其真实性负责。

如有侵权、违反国家法律政策行为,请联系我们,我们会第一时间及时清除和处理!

举报反馈邮箱:[email protected]

快速回复 返回顶部 返回列表