找回密码

蓝光电影网

查看: 377|回复: 0

[剧情] 男人们的大和[简繁字幕].YAMATO.2004.BluRay.1080p.DTS-HD.MA5.1.x265.10bit-ALT 11.60GB

[复制链接]
蓝光币
8
发表于 2022-8-9 00:53:45 | 显示全部楼层 |阅读模式


◎标  题 汉子们的大和
◎译  名 大和号 / 汉子们的大和号 / 汉子的大和 / Otoko-tachi no Yamato
◎片  名 男たちの大和/YAMATO
◎年  代 2005
◎产  地 日本
◎类  别 剧情 / 历史 / 战争
◎语  言 日语
◎上映日期 2005-12-17
◎IMDb评分 6.5/10 (2183人评价)
◎IMDb链接 https://www.imdb.com/title/tt0451845/
◎豆瓣评分 7.0/10 (5652人评价)
◎豆瓣链接 https://movie.douban.com/subject/1455771/
◎片  长 145分钟
◎导  演 佐藤纯弥 Jun'ya Satô
◎编  剧 佐藤纯弥 Jun'ya Satô
◎演  员 反町隆史 Takashi Sorimachi
       中村狮童 Shido Nakamura
       铃木京香 Kyoka Suzuki
       松山研一 Ken'ichi Matsuyama
       长岛一茂 Kazushige Nagashima
       苍井优 Yu Aoi
       余贵美子 Kimiko Yo
       池松壮亮 Sosuke Ikematsu
       寺岛忍 Shinobu Terajima
       白石加代子 Kayoko Shiraishi
       奥田瑛二 Eiji Okuda
       渡哲也 Tetsuya Watari
       仲代达矢 Tatsuya Nakadai
       本田博太郎 Hirotarô Honda
       井川比佐志 Hisashi Igawa
       胜野洋 Hiroshi Katsuno
       平山浩行 Hiroyuki Hirayama
       崎本大海 Hiromi Sakimoto
       林隆三 Ryûzô Hayashi
       春田纯一 Jun'ichi Haruta
       藤本隆宏 Takahiro Fujimoto
       渡边大 Dai Watanabe
       高冈健二 Kenji Takaoka
       高畑淳子 Atsuko Takahata
       高知东生 Noboru Takachi
       高岩淡 Tan Takaiwa
       角川春树 Haruki Kadokawa
       久石让 Joe Hisaishi
       阪本善尚 Yoshitaka Sakamoto
       米田武朗 Takeo Yoneda
       Taro Kiba Taro Kiba
◎标  签 二战 / 日本 / 战争 / 日本电影 / 汉子们的大和 / 军国主义 / 战争片 / 历史
◎简  介
  故事布景设定在承平洋战争中前期,日本水兵在中途岛海战中被美水兵大北;第一灵活舰队4艘航母被击沉;结合舰队司令主座山本五十六上将战死,承平洋上各岛屿的日军守备军队前后淹没,日水兵处于严重晦气的情势。                                    
                                昭和19年(公元1944年)的春季,出格少年兵军队的神尾怀着对大和号的向往,登上了超弩级战列舰“大和”号的甲板,那时的大和号是日本百姓和甲士的希望与意味。神尾忍受了舰上严酷的练习,然后迎来了他的第一次实战——莱特湾大海战。                                    
                                在此次海战中,结合舰队究竟上已经风声鹤唳。当残暴的战局放在眼前,大和号和它的船员们怀着保护河山的决心,起锚迎来它的最初一次悲壮决战。一切的人都很清楚:驱逐他们的将是杀气腾腾的美军多量舰载机群.............
  1. ##### MediaInfo ######
  2. General
  3. Unique ID                                : 54901523376405540458608161770002677561 (0x294DA616DC0D80CD8DA39D3AA2637F39)
  4. Complete name                            : YAMATO.2004.BluRay.1080p.DTS-HD.MA5.1.x265.10bit-ALT.mkv
  5. Format                                   : Matroska
  6. Format version                           : Version 4
  7. File size                                : 11.6 GiB
  8. Duration                                 : 2 h 23 min
  9. Overall bit rate mode                    : Variable
  10. Overall bit rate                         : 11.6 Mb/s
  11. Encoded date                             : UTC 2022-03-02 03:28:22
  12. Writing application                      : mkvmerge v49.0.0 ('Sick Of Losing Soulmates') 64-bit
  13. Writing library                          : libebml v1.4.0 + libmatroska v1.6.1
  14. Video
  15. ID                                       : 1
  16. Format                                   : HEVC
  17. Format/Info                              : High Efficiency Video Coding
  18. Format profile                           : Main [email protected]@High
  19. Codec ID                                 : V_MPEGH/ISO/HEVC
  20. Duration                                 : 2 h 23 min
  21. Bit rate                                 : 7 731 kb/s
  22. Width                                    : 1 920 pixels
  23. Height                                   : 804 pixels
  24. Display aspect ratio                     : 2.40:1
  25. Frame rate mode                          : Constant
  26. Frame rate                               : 23.976 (24000/1001/53875) FPS
  27. Color space                              : YUV
  28. Chroma subsampling                       : 4:2:0
  29. Bit depth                                : 10 bits
  30. Bits/(Pixel*Frame)                       : 0.209
  31. Stream size                              : 7.74 GiB (67%)
  32. Title                                    : HEVC, [email protected]@High, 24/1.001 fps @ 7730 kbps
  33. Writing library                          : x265 3.4+14-gd419c7152:[Windows][GCC 10.2.0][64 bit] 10bit
  34. Encoding settings                        : cpuid=538751111039 / frame-threads=4 / numa-pools=16 / wpp / pmode / pme / no-psnr / no-ssim / log-level=2 / input-csp=1 / input-res=1920x804 / interlace=0 / total-frames=206330 / level-idc=51 / high-tier=1 / uhd-bd=0 / ref=5 / no-allow-non-conformance / no-repeat-headers / annexb / no-aud / no-hrd / info / hash=0 / no-temporal-layers / open-gop / min-keyint=24 / keyint=240 / gop-lookahead=0 / bframes=6 / b-adapt=2 / b-pyramid / bframe-bias=0 / rc-lookahead=40 / lookahead-slices=0 / NTM4NzU=uuDQuD2mJt9fsCf / scenecut=40 / hist-scenecut=0 / radl=0 / no-splice / no-intra-refresh / ctu=32 / min-cu-size=8 / no-rect / no-amp / max-tu-size=32 / tu-inter-depth=3 / tu-intra-depth=3 / limit-tu=4 / rdoq-level=2 / dynamic-rd=0.00 / no-ssim-rd / signhide / no-tskip / nr-intra=0 / nr-inter=0 / no-constrained-intra / no-strong-intra-smoothing / max-merge=4 / limit-refs=1 / limit-modes / me=3 / subme=4 / merange=25 / temporal-mvp / no-frame-dup / no-hme / weightp / weightb / no-analyze-src-pics / deblock=-3:-3 / no-sao / no-sao-non-deblock / rd=6 / selective-sao=0 / no-early-skip / rskip / no-fast-intra / no-tskip-fast / no-cu-lossless / b-intra / no-splitrd-skip / rdpenalty=0 / psy-rd=2.00 / psy-rdoq=1.00 / no-rd-refine / no-lossless / cbqpoffs=0 / crqpoffs=0 / rc=crf / crf=17.0 / qcomp=0.65 / qpstep=4 / stats-write=0 / stats-read=0 / vbv-maxrate=80000 / vbv-bufsize=80000 / vbv-init=0.9 / crf-max=0.0 / crf-min=0.0 / ipratio=1.40 / pbratio=1.30 / aq-mode=2 / aq-strength=0.85 / cutree / zone-count=0 / no-strict-cbr / qg-size=32 / no-rc-grain / qpmax=69 / qpmin=0 / no-const-vbv / sar=1 / overscan=0 / videoformat=5 / range=0 / colorprim=1 / transfer=1 / colormatrix=1 / chromaloc=0 / display-window=0 / cll=0,0 / min-luma=0 / max-luma=1023 / log2-max-poc-lsb=8 / vui-timing-info / vui-hrd-info / slices=1 / no-opt-qp-pps / no-opt-ref-list-length-pps / no-multi-pass-opt-rps / scenecut-bias=0.05 / hist-threshold=0.03 / no-opt-cu-delta-qp / no-aq-motion / no-hdr10 / no-hdr10-opt / no-dhdr10-opt / no-idr-recovery-sei / analysis-reuse-level=0 / analysis-save-reuse-level=0 / analysis-load-reuse-level=0 / scale-factor=0 / refine-intra=0 / refine-inter=0 / refine-mv=1 / refine-ctu-distortion=0 / no-limit-sao / ctu-info=0 / no-lowpass-dct / refine-analysis-type=0 / copy-pic=1 / max-ausize-factor=1.0 / no-dynamic-refine / no-single-sei / no-hevc-aq / no-svt / no-field / qp-adaptation-range=1.00 / no-scenecut-aware-qpconformance-window-offsets / right=0 / bottom=0 / NTM4NzU= / decoder-max-rate=0
  35. Language                                 : English
  36. Default                                  : Yes
  37. Forced                                   : No
  38. Color range                              : Limited
  39. Color primaries                          : BT.709
  40. Transfer characteristics                 : BT.709
  41. Matrix coefficients                      : BT.709
  42. Audio
  43. ID                                       : 2
  44. Format                                   : DTS XLL
  45. Format/Info                              : Digital Theater Systems
  46. Commercial name                          : DTS-HD Master Audio
  47. Codec ID                                 : A_DTS
  48. Duration                                 : 2 h 23 min
  49. Bit rate mode                            : Variable
  50. Bit rate                                 : 3 809 kb/s
  51. Channel(s)                               : 6 channels
  52. Channel layout                           : C L R Ls Rs LFE
  53. Sampling rate                            : 48.0 kHz
  54. Frame rate                               : 93.750 FPS (512 SPF)
  55. Bit depth                                : 24 bits
  56. Compression mode                         : Lossless
  57. Stream size                              : 3.82 GiB (33%)
  58. Title                                    : Japanese DTS-HD Master Audio 5.1 @ 3810 kbps
  59. Language                                 : Japanese
  60. Default                                  : Yes
  61. Forced                                   : No
  62. Text #1
  63. ID                                       : 3
  64. Format                                   : PGS
  65. Codec ID                                 : S_HDMV/PGS
  66. Codec ID/Info                            : Picture based subtitle format used on BDs/HD-DVDs
  67. Duration                                 : 2 h 17 min
  68. Bit rate                                 : 14.7 kb/s
  69. Count of elements                        : 2149
  70. Stream size                              : 14.5 MiB (0%)
  71. Title                                    : Chs/SUP  简体
  72. Language                                 : Chinese
  73. Default                                  : Yes
  74. Forced                                   : No
  75. Text #2
  76. ID                                       : 4
  77. Format                                   : PGS
  78. Codec ID                                 : S_HDMV/PGS
  79. Codec ID/Info                            : Picture based subtitle format used on BDs/HD-DVDs
  80. Duration                                 : 2 h 17 min
  81. Bit rate                                 : 17.3 kb/s
  82. Count of elements                        : 2149
  83. Stream size                              : 17.0 MiB (0%)
  84. Title                                    : Cht/SUP  繁体
  85. Language                                 : Chinese
  86. Default                                  : No
  87. Forced                                   : No
  88. Menu
  89. 00:00:00.000                             : en:第 01 章
  90. 00:02:30.817                             : en:第 02 章
  91. 00:13:44.574                             : en:第 03 章
  92. 00:16:12.013                             : en:第 04 章
  93. 00:22:21.423                             : en:第 05 章
  94. 00:26:12.237                             : en:第 06 章
  95. 00:34:44.249                             : en:第 07 章
  96. 00:42:27.295                             : en:第 08 章
  97. 00:45:44.784                             : en:第 09 章
  98. 00:49:46.317                             : en:第 10 章
  99. 00:53:40.217                             : en:第 11 章
  100. 00:58:51.695                             : en:第 12 章
  101. 01:06:43.333                             : en:第 13 章
  102. 01:15:03.874                             : en:第 14 章
  103. 01:20:19.857                             : en:第 15 章
  104. 01:27:17.607                             : en:第 16 章
  105. 01:31:23.728                             : en:第 17 章
  106. 01:35:30.433                             : en:第 18 章
  107. 01:40:37.698                             : en:第 19 章
  108. 01:46:37.391                             : en:第 20 章
  109. 01:52:34.665                             : en:第 21 章
  110. 01:56:22.934                             : en:第 22 章
  111. 01:59:10.477                             : en:第 23 章
  112. 02:08:29.035                             : en:第 24 章
  113. 02:17:56.602                             : en:第 25 章
复制代码

















保举请利用qBittorrent,utorrent,transmission等标准BT软件下载!以获得最快速度。奉求保种!





回复

使用道具 举报

懒得打字嘛,点击右侧快捷回复 【右侧内容,后台自定义】
您需要登录后才可以回帖 登录 | 立即加入

本版积分规则

Archiver|小黑屋| 蓝光电影网 |网站地图

Copyright © 2021 Comsenz Inc. Powered by 蓝光电影网

蓝光电影网

本站内容由用户自主分享和转载自互联网,转载目的在于传递更多信息,并不代表本网赞同其观点和对其真实性负责。

如有侵权、违反国家法律政策行为,请联系我们,我们会第一时间及时清除和处理!

举报反馈邮箱:[email protected]

快速回复 返回顶部 返回列表