找回密码

查看: 3653|回复: 12

[剧情] 侏罗纪世界3[国英多音轨/简繁英字幕].Jurassic.World.Dominion.2022.Extended.Edition.1080p.BluRay.DTS-X.7.1.2Audio.x265-10bit-BATHD 19.81GB

[复制链接]
蓝光币
8
发表于 2022-8-20 03:50:18 | 显示全部楼层 |阅读模式


◎标  题 侏罗纪天下3
◎译  名 侏罗纪天下3:统治 / 侏罗纪天下:统治霸权(港) / 侏罗纪天下:统霸全国(台) / 侏罗纪公园6 / Jurassic Park 6
◎片  名 Jurassic World: Dominion
◎年  代 2022
◎产  地 美国
◎类  别 行动 / 科幻 / 冒险
◎语  言 英语
◎上映日期 2022-06-10(美国/中国大陆) / 2022-06-01(韩国)
◎IMDb评分 6.4/10 (2331人评价)
◎IMDb链接 https://www.imdb.com/title/tt8041270/
◎豆瓣链接 https://movie.douban.com/subject/26873582/
◎片  长 146分钟
◎导  演 科林·特莱沃若 Colin Trevorrow
◎编  剧 科林·特莱沃若 Colin Trevorrow
       艾米丽·卡迈克尔 Emily Carmichael
       德里克·康纳利 Derek Connolly
       迈克尔·克莱顿 Michael Crichton
◎演  员 克里斯·帕拉特 Chris Pratt
       布莱丝·达拉斯·霍华德 Bryce Dallas Howard
       山姆·尼尔 Sam Neill
       劳拉·邓恩 Laura Dern
       杰夫·高布伦 Jeff Goldblum
       伊莎贝拉·瑟蒙 Isabella Sermon
       马莫多·阿西 Mamoudou Athie
       丹妮艾拉·皮内达 Daniella Pineda
       迪辰·拉克曼 Dichen Lachman
       黄荣亮 B.D. Wong
       克里斯托弗·普拉哈 Kristoffer Polaha
       奥玛·希 Omar Sy
       贾斯蒂斯·史姑娘 Justice Smith
       坎贝尔·斯科特 Campbell Scott
       德汪达·怀斯 DeWanda Wise
       斯科特·黑兹 Scott Haze
       Freya Parker Freya Parker
       瓦拉达·塞图 Varada Sethu
       格利尼斯·戴维斯 Glynis Davies
       埃尔娃·崔尔 Elva Trill
       柯基·法尔考 Cokey Falkow
       伯纳多·桑托斯 Bernardo Santos
       迪米特里“维加斯”蒂瓦约 Dimitri 'Vegas' Thivaios
       小恩佐·斯奎利诺 Enzo Squillino Jr.
       特蕾莎·森登·加西亚 Teresa Cendon-Garcia
       杰克·约翰逊 Jake M. Johnson
       乔·阿泽帕迪 Joe Azzopardi
       帕特里克·克劳利 Patrick Crowley
       弗兰克·马歇尔 Frank Marshall
       史蒂文·斯皮尔伯格 Steven Spielberg
       科林·特莱沃若 Colin Trevorrow
       温斯顿·阿佐帕迪 Winston Azzopardi
       迈克·吉亚奇诺 Michael Giacchino
       约翰·施瓦兹曼 John Schwartzman
       马克·桑格 Mark Sanger
       妮娜·古德 Nina Gold
       凯文·詹金斯 Kevin Jenkins
       理查德·罗伯茨 Richard Roberts
◎简  介
  影片为《侏罗纪天下》系列的结束篇,故事的开篇设定在纳布拉尔岛被摧毁的四年后。现在,恐龙在天下各地与人类配合生活、配合捕猎。这一懦弱的平衡将重塑未来,并终极决议人类能否与史上最可怕生物同享这颗星球,并继续站在食品链的顶端。
  1. ##### MediaInfo ######
  2. General
  3. Unique ID                                : 115671347117791308214940363339387961935 (0x57057DB9871081AE221501B4991D024F)
  4. Complete name                            : Jurassic.World.Dominion.2022.Extended.Edition.1080p.BluRay.DTS-X.7.1.2Audio.x265-10bit-BATHD.mkv
  5. Format                                   : Matroska
  6. Format version                           : Version 4
  7. File size                                : 19.8 GiB
  8. Duration                                 : 2 h 40 min
  9. Overall bit rate mode                    : Variable
  10. Overall bit rate                         : 17.6 Mb/s
  11. Movie name                               : Jurassic World Dominion
  12. Encoded date                             : UTC 2022-08-15 11:31:13
  13. Writing application                      : mkvmerge v69.0.0 ('Day And Age') 64-bit
  14. Writing library                          : libebml v1.4.2 + libmatroska v1.6.4
  15. Cover                                    : Yes
  16. Attachments                              : cover.jpg
  17. Video
  18. ID                                       : 1
  19. Format                                   : HEVC
  20. Format/Info                              : High Efficiency Video Coding
  21. Format profile                           : Main 10@L5.1@High
  22. Codec ID                                 : V_MPEGH/ISO/HEVC
  23. Duration                                 : 2 h 40 min
  24. Bit rate                                 : 10.5 Mb/s
  25. Width                                    : 1 920 pixels
  26. Height                                   : 960 pixels
  27. Display aspect ratio                     : 2.000
  28. Frame rate mode                          : Constant
  29. Frame rate                               : 23.976 (24000/1001/53875) FPS
  30. Color space                              : YUV
  31. Chroma subsampling                       : 4:2:0
  32. Bit depth                                : 10 bits
  33. Bits/(Pixel*Frame)                       : 0.238
  34. Stream size                              : 11.8 GiB (59%)
  35. Title                                    : @HDSky
  36. Writing library                          : x265 - H.265/HEVC codec
  37. Default                                  : Yes
  38. Forced                                   : No
  39. Audio #1
  40. ID                                       : 2
  41. Format                                   : DTS XLL X
  42. Format/Info                              : Digital Theater Systems
  43. Commercial name                          : DTS-HD Master Audio
  44. Codec ID                                 : A_DTS
  45. Duration                                 : 2 h 40 min
  46. Bit rate mode                            : Variable
  47. Bit rate                                 : 3 301 kb/s
  48. Channel(s)                               : 8 channels
  49. Channel(s)_Original                      : Object Based
  50. ChannelLayout_Original                   : Object Based
  51. Sampling rate                            : 48.0 kHz
  52. Frame rate                               : 93.750 FPS (512 SPF)
  53. Bit depth                                : 24 bits
  54. Stream size                              : 3.70 GiB (19%)
  55. Title                                    : English
  56. Language                                 : English
  57. Default                                  : Yes
  58. Forced                                   : No
  59. Audio #2
  60. ID                                       : 3
  61. ID in the original source medium         : 4353 (0x1101)
  62. Format                                   : DTS XLL
  63. Format/Info                              : Digital Theater Systems
  64. Commercial name                          : DTS-HD Master Audio
  65. Codec ID                                 : A_DTS
  66. Duration                                 : 2 h 40 min
  67. Bit rate mode                            : Variable
  68. Bit rate                                 : 3 727 kb/s
  69. Channel(s)                               : 8 channels
  70. Channel layout                           : C L R LFE Lb Rb Lss Rss
  71. Sampling rate                            : 48.0 kHz
  72. Frame rate                               : 93.750 FPS (512 SPF)
  73. Bit depth                                : 24 bits
  74. Compression mode                         : Lossless
  75. Delay relative to video                  : 21 ms
  76. Stream size                              : 4.18 GiB (21%)
  77. Title                                    : Mandarin
  78. Language                                 : Chinese
  79. Default                                  : Yes
  80. Forced                                   : No
  81. Original source medium                   : Blu-ray
  82. Text #1
  83. ID                                       : 4
  84. Format                                   : PGS
  85. Muxing mode                              : zlib
  86. Codec ID                                 : S_HDMV/PGS
  87. Codec ID/Info                            : Picture based subtitle format used on BDs/HD-DVDs
  88. Duration                                 : 2 h 37 min
  89. Bit rate                                 : 36.8 kb/s
  90. Count of elements                        : 4074
  91. Stream size                              : 41.5 MiB (0%)
  92. Title                                    : ENG
  93. Language                                 : English
  94. Default                                  : Yes
  95. Forced                                   : No
  96. Text #2
  97. ID                                       : 5
  98. Format                                   : PGS
  99. Muxing mode                              : zlib
  100. Codec ID                                 : S_HDMV/PGS
  101. Codec ID/Info                            : Picture based subtitle format used on BDs/HD-DVDs
  102. Duration                                 : 2 h 31 min
  103. Bit rate                                 : 59.4 kb/s
  104. Count of elements                        : 4363
  105. Stream size                              : 64.4 MiB (0%)
  106. Title                                    : CHS&ENG
  107. Language                                 : Chinese
  108. Default                                  : Yes
  109. Forced                                   : No
  110. Text #3
  111. ID                                       : 6
  112. Format                                   : PGS
  113. Muxing mode                              : zlib
  114. Codec ID                                 : S_HDMV/PGS
  115. Codec ID/Info                            : Picture based subtitle format used on BDs/HD-DVDs
  116. Duration                                 : 2 h 31 min
  117. Bit rate                                 : 58.3 kb/s
  118. Count of elements                        : 4335
  119. Stream size                              : 63.3 MiB (0%)
  120. Title                                    : CHS&ENG
  121. Language                                 : Chinese
  122. Default                                  : Yes
  123. Forced                                   : No
  124. Text #4
  125. ID                                       : 7
  126. Format                                   : PGS
  127. Muxing mode                              : zlib
  128. Codec ID                                 : S_HDMV/PGS
  129. Codec ID/Info                            : Picture based subtitle format used on BDs/HD-DVDs
  130. Duration                                 : 2 h 31 min
  131. Bit rate                                 : 38.6 kb/s
  132. Count of elements                        : 4361
  133. Stream size                              : 41.9 MiB (0%)
  134. Title                                    : CHS
  135. Language                                 : Chinese
  136. Default                                  : Yes
  137. Forced                                   : No
  138. Text #5
  139. ID                                       : 8
  140. Format                                   : PGS
  141. Muxing mode                              : zlib
  142. Codec ID                                 : S_HDMV/PGS
  143. Codec ID/Info                            : Picture based subtitle format used on BDs/HD-DVDs
  144. Duration                                 : 2 h 31 min
  145. Bit rate                                 : 39.0 kb/s
  146. Count of elements                        : 4361
  147. Stream size                              : 42.3 MiB (0%)
  148. Title                                    : CHT
  149. Language                                 : Chinese
  150. Default                                  : Yes
  151. Forced                                   : No
  152. Menu
  153. 00:00:00.000                             : en:第 01 章
  154. 00:07:57.560                             : en:第 02 章
  155. 00:11:36.362                             : en:第 03 章
  156. 00:25:30.070                             : en:第 04 章
  157. 00:35:48.271                             : en:第 05 章
  158. 00:42:56.282                             : en:第 06 章
  159. 00:47:53.788                             : en:第 07 章
  160. 00:54:45.407                             : en:第 08 章
  161. 01:04:51.054                             : en:第 09 章
  162. 01:14:49.026                             : en:第 10 章
  163. 01:25:28.373                             : en:第 11 章
  164. 01:30:44.356                             : en:第 12 章
  165. 01:38:17.975                             : en:第 13 章
  166. 01:44:28.345                             : en:第 14 章
  167. 01:48:09.483                             : en:第 15 章
  168. 02:04:34.425                             : en:第 16 章
  169. 02:08:56.896                             : en:第 17 章
  170. 02:14:12.961                             : en:第 18 章
  171. 02:23:16.922                             : en:第 19 章
  172. 02:29:59.032                             : en:第 20 章
  173. 02:40:40.506                             : en:第 21 章
复制代码

0



保举请利用qBittorrent,utorrent,transmission等标准BT软件下载!以获得最快速度。奉求保种!





回复

使用道具 举报

蓝光币
193
发表于 2022-8-20 20:41:15 | 显示全部楼层

楼主太厉害了!楼主,电影应该很好看我觉得蓝光电影网真是个好地方!
回复

使用道具 举报

蓝光币
21
发表于 2022-8-24 13:45:45 | 显示全部楼层
这个资源很漂亮
回复

使用道具 举报

蓝光币
33
发表于 2022-8-25 13:56:11 | 显示全部楼层
不错,非常感谢分享
回复

使用道具 举报

蓝光币
618
发表于 2022-9-5 23:07:13 | 显示全部楼层
少有的侏罗纪世界3加长版国语版,谢谢楼主!
回复

使用道具 举报

蓝光币
63
发表于 2022-9-22 08:56:31 | 显示全部楼层
有国语配音真的是yyds
回复

使用道具 举报

蓝光币
77
发表于 2022-9-23 03:39:40 | 显示全部楼层
感谢楼主分享
回复

使用道具 举报

蓝光币
195
发表于 2023-1-4 11:16:21 | 显示全部楼层

这东西我收了!谢谢楼主!蓝光电影网真好!
回复

使用道具 举报

蓝光币
32
发表于 2023-5-8 15:34:57 | 显示全部楼层
感谢楼主分享!!!
回复

使用道具 举报

蓝光币
99
发表于 2023-6-8 16:16:36 | 显示全部楼层
经典资源,感谢楼主分享
回复

使用道具 举报

懒得打字嘛,点击右侧快捷回复 【右侧内容,后台自定义】
您需要登录后才可以回帖 登录 | 立即加入

本版积分规则

Copyright © 2024 Comsenz Inc. Powered by 蓝光电影网

本站内容由用户自主分享和转载自互联网,转载目的在于传递更多信息,并不代表本网赞同其观点和对其真实性负责。

如有侵权、违反国家法律政策行为,请联系我们,我们会第一时间及时清除和处理!

举报反馈邮箱:4k1080.com@gmail.com

快速回复 返回顶部 返回列表