找回密码

查看: 1624|回复: 0

[剧情] 更好的世界[简繁英字幕].In.A.Better.World.2010.BluRay.1080p.DTS-HD.MA.5.1.x265.10bit-ALT 6.74GB

[复制链接]
蓝光币
8
发表于 2022-8-20 19:08:59 | 显示全部楼层 |阅读模式


◎标  题 更好的天下
◎译  名 爱有新天下(港) / 文化社会 / 复仇 / In a Better World / The Revenge
◎片  名 Hævnen
◎年  代 2010
◎产  地 丹麦 / 瑞典
◎类  别 剧情
◎语  言 丹麦语 / 瑞典语 / 英语
◎上映日期 2010-08-26(丹麦)
◎IMDb评分 7.6/10 (39570人评价)
◎IMDb链接 https://www.imdb.com/title/tt1340107/
◎豆瓣评分 8.3/10 (25220人评价)
◎豆瓣链接 https://movie.douban.com/subject/3338879/
◎片  长 119分钟
◎导  演 苏珊娜·比尔 Susanne Bier
◎编  剧 苏珊娜·比尔 Susanne Bier
       安诺斯·托马斯·延森 Anders Thomas Jensen
◎演  员 米卡埃尔·佩斯布兰特 Mikael Persbrandt
       崔娜·蒂虹 Trine Dyrholm
       马库斯·瑞格德 Markus Rygaard
       威廉·约翰·奈尔森 William Jøhnk Nielsen
       乌尔里奇·汤姆森 Ulrich Thomsen
       卡米拉·戈特利布 Camilla Gottlieb
       波笛·约根森 Bodil Jørgensen
◎标  签 丹麦 / 人性 / 剧情 / 奥斯卡 / 瑞典 / 奥斯卡最好外语片 / 2010 / 长大
◎简  介
  瑞典医生安东(米克尔·佩斯勃兰特 Mikael Persbrandt 饰)终年工作在苏丹的栖流所,天天直面武装暴力酿成的伤痛与灭亡;休假时则飞返丹麦,与分家中的妻子玛丽安(崔娜·蒂虹 Trine Dyrholm 饰)轮流照看两个儿子。男孩克里斯蒂安(威廉·约翰·奈尔森 William Jøhnk Nielsen 饰)从伦敦迁至丹麦,母亲的病逝令他与父亲心生隔膜。在新黉舍中他与安东的宗子伊莱亚斯(马库斯·瑞格德 Markus Rygaard 饰)结识,后者因瑞典人的身份遭到同学的轻视与凌辱。克里斯蒂安教会伊莱亚斯以暴制暴,两个一样来自破裂家庭的男孩成为好友。                                       
                                    安东带着两个儿子和克里斯蒂安外出游玩,因误解被人持续掌掴羞辱。安东对峙以宽大忍让的态度化解此事,却不被孩子们了解。在发现库房里的炸药后,克里斯蒂安起头鼓动伊莱亚斯加入自己危险的复仇计划。而此时已经...
  1. ##### MediaInfo ######
  2. General
  3. Unique ID                                : 38055633488145551415736810887530284738 (0x1CA13F97B729C01EBA11DA28685E06C2)
  4. Complete name                            : In.A.Better.World.2010.BluRay.1080p.DTS-HD.MA.5.1.x265.10bit-ALT.mkv
  5. Format                                   : Matroska
  6. Format version                           : Version 4
  7. File size                                : 6.74 GiB
  8. Duration                                 : 1 h 58 min
  9. Overall bit rate mode                    : Variable
  10. Overall bit rate                         : 8 158 kb/s
  11. Encoded date                             : UTC 2022-01-08 05:14:38
  12. Writing application                      : mkvmerge v49.0.0 ('Sick Of Losing Soulmates') 64-bit
  13. Writing library                          : libebml v1.4.0 + libmatroska v1.6.1
  14. Video
  15. ID                                       : 1
  16. Format                                   : HEVC
  17. Format/Info                              : High Efficiency Video Coding
  18. Format profile                           : Main 10@L5.1@High
  19. Codec ID                                 : V_MPEGH/ISO/HEVC
  20. Duration                                 : 1 h 58 min
  21. Bit rate                                 : 5 484 kb/s
  22. Width                                    : 1 920 pixels
  23. Height                                   : 816 pixels
  24. Display aspect ratio                     : 2.35:1
  25. Frame rate mode                          : Constant
  26. Frame rate                               : 23.976 (24000/1001/53875) FPS
  27. Color space                              : YUV
  28. Chroma subsampling                       : 4:2:0
  29. Bit depth                                : 10 bits
  30. Bits/(Pixel*Frame)                       : 0.146
  31. Stream size                              : 4.53 GiB (67%)
  32. Title                                    : HEVC, x265Main10@L5.1@High, 24/1.001 fps @ 5483 kbps
  33. Writing library                          : x265 3.4+14-gd419c7152:[Windows][GCC 10.2.0][64 bit] 10bit
  34. Encoding settings                        : cpuid=538751111039 / frame-threads=4 / numa-pools=20 / wpp / pmode / pme / no-psnr / no-ssim / log-level=2 / input-csp=1 / input-res=1920x816 / interlace=0 / total-frames=170040 / level-idc=51 / high-tier=1 / uhd-bd=0 / ref=5 / no-allow-non-conformance / no-repeat-headers / annexb / no-aud / no-hrd / info / hash=0 / no-temporal-layers / open-gop / min-keyint=24 / keyint=240 / gop-lookahead=0 / bframes=6 / b-adapt=2 / b-pyramid / bframe-bias=0 / rc-lookahead=40 / lookahead-slices=0 / NTM4NzU=uuDQuD2mJt9fsCf / scenecut=40 / hist-scenecut=0 / radl=0 / no-splice / no-intra-refresh / ctu=32 / min-cu-size=8 / no-rect / no-amp / max-tu-size=32 / tu-inter-depth=3 / tu-intra-depth=3 / limit-tu=4 / rdoq-level=2 / dynamic-rd=0.00 / no-ssim-rd / signhide / no-tskip / nr-intra=0 / nr-inter=0 / no-constrained-intra / no-strong-intra-smoothing / max-merge=4 / limit-refs=1 / limit-modes / me=3 / subme=4 / merange=25 / temporal-mvp / no-frame-dup / no-hme / weightp / weightb / no-analyze-src-pics / deblock=-3:-3 / no-sao / no-sao-non-deblock / rd=6 / selective-sao=0 / no-early-skip / rskip / no-fast-intra / no-tskip-fast / no-cu-lossless / b-intra / no-splitrd-skip / rdpenalty=0 / psy-rd=2.00 / psy-rdoq=1.00 / no-rd-refine / no-lossless / cbqpoffs=0 / crqpoffs=0 / rc=crf / crf=17.0 / qcomp=0.65 / qpstep=4 / stats-write=0 / stats-read=0 / vbv-maxrate=80000 / vbv-bufsize=80000 / vbv-init=0.9 / crf-max=0.0 / crf-min=0.0 / ipratio=1.40 / pbratio=1.30 / aq-mode=2 / aq-strength=0.85 / cutree / zone-count=0 / no-strict-cbr / qg-size=32 / no-rc-grain / qpmax=69 / qpmin=0 / no-const-vbv / sar=1 / overscan=0 / videoformat=5 / range=0 / colorprim=1 / transfer=1 / colormatrix=1 / chromaloc=0 / display-window=0 / cll=0,0 / min-luma=0 / max-luma=1023 / log2-max-poc-lsb=8 / vui-timing-info / vui-hrd-info / slices=1 / no-opt-qp-pps / no-opt-ref-list-length-pps / no-multi-pass-opt-rps / scenecut-bias=0.05 / hist-threshold=0.03 / no-opt-cu-delta-qp / no-aq-motion / no-hdr10 / no-hdr10-opt / no-dhdr10-opt / no-idr-recovery-sei / analysis-reuse-level=0 / analysis-save-reuse-level=0 / analysis-load-reuse-level=0 / scale-factor=0 / refine-intra=0 / refine-inter=0 / refine-mv=1 / refine-ctu-distortion=0 / no-limit-sao / ctu-info=0 / no-lowpass-dct / refine-analysis-type=0 / copy-pic=1 / max-ausize-factor=1.0 / no-dynamic-refine / no-single-sei / no-hevc-aq / no-svt / no-field / qp-adaptation-range=1.00 / no-scenecut-aware-qpconformance-window-offsets / right=0 / bottom=0 / NTM4NzU= / decoder-max-rate=0
  35. Language                                 : English
  36. Default                                  : Yes
  37. Forced                                   : No
  38. Color range                              : Limited
  39. Color primaries                          : BT.709
  40. Transfer characteristics                 : BT.709
  41. Matrix coefficients                      : BT.709
  42. Audio
  43. ID                                       : 2
  44. Format                                   : DTS XLL
  45. Format/Info                              : Digital Theater Systems
  46. Commercial name                          : DTS-HD Master Audio
  47. Codec ID                                 : A_DTS
  48. Duration                                 : 1 h 58 min
  49. Bit rate mode                            : Variable
  50. Bit rate                                 : 2 617 kb/s
  51. Channel(s)                               : 6 channels
  52. Channel layout                           : C L R Ls Rs LFE
  53. Sampling rate                            : 48.0 kHz
  54. Frame rate                               : 93.750 FPS (512 SPF)
  55. Bit depth                                : 24 bits
  56. Compression mode                         : Lossless
  57. Stream size                              : 2.16 GiB (32%)
  58. Title                                    : Danish DTS-HD Master Audio 5.1 @ 2617 kbps
  59. Language                                 : Danish
  60. Default                                  : Yes
  61. Forced                                   : No
  62. Text #1
  63. ID                                       : 3
  64. Format                                   : PGS
  65. Codec ID                                 : S_HDMV/PGS
  66. Codec ID/Info                            : Picture based subtitle format used on BDs/HD-DVDs
  67. Duration                                 : 1 h 50 min
  68. Bit rate                                 : 17.9 kb/s
  69. Count of elements                        : 1556
  70. Stream size                              : 14.2 MiB (0%)
  71. Title                                    : Eng/SUP
  72. Language                                 : English
  73. Default                                  : No
  74. Forced                                   : No
  75. Text #2
  76. ID                                       : 4
  77. Format                                   : PGS
  78. Codec ID                                 : S_HDMV/PGS
  79. Codec ID/Info                            : Picture based subtitle format used on BDs/HD-DVDs
  80. Duration                                 : 1 h 51 min
  81. Bit rate                                 : 19.8 kb/s
  82. Count of elements                        : 2300
  83. Stream size                              : 15.8 MiB (0%)
  84. Title                                    : Chs/SUP  简体
  85. Language                                 : Chinese
  86. Default                                  : Yes
  87. Forced                                   : No
  88. Text #3
  89. ID                                       : 5
  90. Format                                   : PGS
  91. Codec ID                                 : S_HDMV/PGS
  92. Codec ID/Info                            : Picture based subtitle format used on BDs/HD-DVDs
  93. Duration                                 : 1 h 51 min
  94. Bit rate                                 : 20.2 kb/s
  95. Count of elements                        : 2300
  96. Stream size                              : 16.1 MiB (0%)
  97. Title                                    : Cht/SUP  繁体
  98. Language                                 : Chinese
  99. Default                                  : No
  100. Forced                                   : No
  101. Menu
  102. 00:00:00.000                             : en:第 01 章
  103. 00:05:41.049                             : en:第 02 章
  104. 00:13:58.880                             : en:第 03 章
  105. 00:21:26.577                             : en:第 04 章
  106. 00:28:28.832                             : en:第 05 章
  107. 00:34:17.264                             : en:第 06 章
  108. 00:41:46.337                             : en:第 07 章
  109. 00:49:04.233                             : en:第 08 章
  110. 00:54:43.155                             : en:第 09 章
  111. 01:02:36.920                             : en:第 10 章
  112. 01:07:58.908                             : en:第 11 章
  113. 01:15:46.959                             : en:第 12 章
  114. 01:21:27.841                             : en:第 13 章
  115. 01:29:27.696                             : en:第 14 章
  116. 01:36:11.933                             : en:第 15 章
  117. 01:48:22.996                             : en:第 16 章
复制代码
















保举请利用qBittorrent,utorrent,transmission等标准BT软件下载!以获得最快速度。奉求保种!





回复

使用道具 举报

懒得打字嘛,点击右侧快捷回复 【右侧内容,后台自定义】
您需要登录后才可以回帖 登录 | 立即加入

本版积分规则

Copyright © 2024 Comsenz Inc. Powered by 蓝光电影网

本站内容由用户自主分享和转载自互联网,转载目的在于传递更多信息,并不代表本网赞同其观点和对其真实性负责。

如有侵权、违反国家法律政策行为,请联系我们,我们会第一时间及时清除和处理!

举报反馈邮箱:4k1080.com@gmail.com

快速回复 返回顶部 返回列表