找回密码

查看: 1803|回复: 2

[剧情] 侏罗纪世界3[中文字幕/国语音轨].Jurassic.World.Dominion.2022.1080p.WEB-DL.H264.DDP5.1-TAGWEB 5.30GB

[复制链接]
蓝光币
8
发表于 2022-8-23 04:03:18 | 显示全部楼层 |阅读模式


◎标  题 侏罗纪天下3
◎译  名 侏罗纪天下3:统治 / 侏罗纪天下:统治霸权(港) / 侏罗纪天下:统霸全国(台) / 侏罗纪公园6 / Jurassic Park 6
◎片  名 Jurassic World: Dominion
◎年  代 2022
◎产  地 美国
◎类  别 行动 / 科幻 / 冒险
◎语  言 英语
◎上映日期 2022-06-10(美国/中国大陆) / 2022-06-01(韩国)
◎IMDb评分 6.4/10 (2331人评价)
◎IMDb链接 https://www.imdb.com/title/tt8041270/
◎豆瓣链接 https://movie.douban.com/subject/26873582/
◎片  长 146分钟
◎导  演 科林·特莱沃若 Colin Trevorrow
◎编  剧 科林·特莱沃若 Colin Trevorrow
       艾米丽·卡迈克尔 Emily Carmichael
       德里克·康纳利 Derek Connolly
       迈克尔·克莱顿 Michael Crichton
◎演  员 克里斯·帕拉特 Chris Pratt
       布莱丝·达拉斯·霍华德 Bryce Dallas Howard
       山姆·尼尔 Sam Neill
       劳拉·邓恩 Laura Dern
       杰夫·高布伦 Jeff Goldblum
       伊莎贝拉·瑟蒙 Isabella Sermon
       马莫多·阿西 Mamoudou Athie
       丹妮艾拉·皮内达 Daniella Pineda
       迪辰·拉克曼 Dichen Lachman
       黄荣亮 B.D. Wong
       克里斯托弗·普拉哈 Kristoffer Polaha
       奥玛·希 Omar Sy
       贾斯蒂斯·史姑娘 Justice Smith
       坎贝尔·斯科特 Campbell Scott
       德汪达·怀斯 DeWanda Wise
       斯科特·黑兹 Scott Haze
       Freya Parker Freya Parker
       瓦拉达·塞图 Varada Sethu
       格利尼斯·戴维斯 Glynis Davies
       埃尔娃·崔尔 Elva Trill
       柯基·法尔考 Cokey Falkow
       伯纳多·桑托斯 Bernardo Santos
       迪米特里“维加斯”蒂瓦约 Dimitri 'Vegas' Thivaios
       小恩佐·斯奎利诺 Enzo Squillino Jr.
       特蕾莎·森登·加西亚 Teresa Cendon-Garcia
       杰克·约翰逊 Jake M. Johnson
       乔·阿泽帕迪 Joe Azzopardi
       帕特里克·克劳利 Patrick Crowley
       弗兰克·马歇尔 Frank Marshall
       史蒂文·斯皮尔伯格 Steven Spielberg
       科林·特莱沃若 Colin Trevorrow
       温斯顿·阿佐帕迪 Winston Azzopardi
       迈克·吉亚奇诺 Michael Giacchino
       约翰·施瓦兹曼 John Schwartzman
       马克·桑格 Mark Sanger
       妮娜·古德 Nina Gold
       凯文·詹金斯 Kevin Jenkins
       理查德·罗伯茨 Richard Roberts
◎简  介
  影片为《侏罗纪天下》系列的结束篇,故事的开篇设定在纳布拉尔岛被摧毁的四年后。现在,恐龙在天下各地与人类配合生活、配合捕猎。这一懦弱的平衡将重塑未来,并终极决议人类能否与史上最可怕生物同享这颗星球,并继续站在食品链的顶端。
  1. ##### MediaInfo ######
  2. General
  3. Unique ID                                : 328807973633772716486793721292084593080 (0xF75E1CBB980FE37D46B5DB582CB5C1B8)
  4. Complete name                            : Jurassic.World.Dominion.2022.1080p.WEB-DL.H264.DDP5.1-TAGWEB.mkv
  5. Format                                   : Matroska
  6. Format version                           : Version 4
  7. File size                                : 5.30 GiB
  8. Duration                                 : 2 h 27 min
  9. Overall bit rate                         : 5 155 kb/s
  10. Encoded date                             : UTC 2022-08-17 18:05:39
  11. Writing application                      : mkvmerge v69.0.0 ('Day And Age') 64-bit
  12. Writing library                          : libebml v1.4.2 + libmatroska v1.6.4
  13. Video
  14. ID                                       : 1
  15. Format                                   : AVC
  16. Format/Info                              : Advanced Video Codec
  17. Format profile                           : High@L5
  18. Format settings                          : CABAC / 6 Ref Frames
  19. Format settings, CABAC                   : Yes
  20. Format settings, Reference frames        : 6 frames
  21. Codec ID                                 : V_MPEG4/ISO/AVC
  22. Duration                                 : 2 h 27 min
  23. Bit rate                                 : 3 487 kb/s
  24. Width                                    : 1 920 pixels
  25. Height                                   : 960 pixels
  26. Display aspect ratio                     : 2.000
  27. Frame rate mode                          : Constant
  28. Frame rate                               : 23.976 (24000/1001/53875) FPS
  29. Original frame rate                      : 23.976 (23976/1000/53875) FPS
  30. Color space                              : YUV
  31. Chroma subsampling                       : 4:2:0
  32. Bit depth                                : 8 bits
  33. Scan type                                : Progressive
  34. Bits/(Pixel*Frame)                       : 0.079
  35. Stream size                              : 3.59 GiB (68%)
  36. Language                                 : Chinese
  37. Default                                  : Yes
  38. Forced                                   : No
  39. Color range                              : Limited
  40. Color primaries                          : BT.709
  41. Transfer characteristics                 : BT.709
  42. Matrix coefficients                      : BT.709
  43. Audio #1
  44. ID                                       : 2
  45. Format                                   : E-AC-3
  46. Format/Info                              : Enhanced AC-3
  47. Commercial name                          : Dolby Digital Plus
  48. Codec ID                                 : A_EAC3
  49. Duration                                 : 2 h 27 min
  50. Bit rate mode                            : Constant
  51. Bit rate                                 : 256 kb/s
  52. Channel(s)                               : 6 channels
  53. Channel layout                           : L R C LFE Ls Rs
  54. Sampling rate                            : 48.0 kHz
  55. Frame rate                               : 31.250 FPS (1536 SPF)
  56. Compression mode                         : Lossy
  57. Stream size                              : 269 MiB (5%)
  58. Language                                 : English
  59. Service kind                             : Complete Main
  60. Default                                  : Yes
  61. Forced                                   : No
  62. Audio #2
  63. ID                                       : 3
  64. Format                                   : E-AC-3
  65. Format/Info                              : Enhanced AC-3
  66. Commercial name                          : Dolby Digital Plus
  67. Codec ID                                 : A_EAC3
  68. Duration                                 : 2 h 27 min
  69. Bit rate mode                            : Constant
  70. Bit rate                                 : 256 kb/s
  71. Channel(s)                               : 6 channels
  72. Channel layout                           : L R C LFE Ls Rs
  73. Sampling rate                            : 48.0 kHz
  74. Frame rate                               : 31.250 FPS (1536 SPF)
  75. Compression mode                         : Lossy
  76. Stream size                              : 269 MiB (5%)
  77. Language                                 : Chinese
  78. Service kind                             : Complete Main
  79. Default                                  : No
  80. Forced                                   : No
  81. Audio #3
  82. ID                                       : 4
  83. Format                                   : E-AC-3
  84. Format/Info                              : Enhanced AC-3
  85. Commercial name                          : Dolby Digital Plus
  86. Codec ID                                 : A_EAC3
  87. Duration                                 : 2 h 27 min
  88. Bit rate mode                            : Constant
  89. Bit rate                                 : 256 kb/s
  90. Channel(s)                               : 2 channels
  91. Channel layout                           : L R
  92. Sampling rate                            : 48.0 kHz
  93. Frame rate                               : 31.250 FPS (1536 SPF)
  94. Compression mode                         : Lossy
  95. Stream size                              : 270 MiB (5%)
  96. Language                                 : English
  97. Service kind                             : Complete Main
  98. Default                                  : No
  99. Forced                                   : No
  100. Audio #4
  101. ID                                       : 5
  102. Format                                   : E-AC-3
  103. Format/Info                              : Enhanced AC-3
  104. Commercial name                          : Dolby Digital Plus
  105. Codec ID                                 : A_EAC3
  106. Duration                                 : 2 h 27 min
  107. Bit rate mode                            : Constant
  108. Bit rate                                 : 256 kb/s
  109. Channel(s)                               : 2 channels
  110. Channel layout                           : L R
  111. Sampling rate                            : 48.0 kHz
  112. Frame rate                               : 31.250 FPS (1536 SPF)
  113. Compression mode                         : Lossy
  114. Stream size                              : 270 MiB (5%)
  115. Language                                 : Chinese
  116. Service kind                             : Complete Main
  117. Default                                  : No
  118. Forced                                   : No
  119. Audio #5
  120. ID                                       : 6
  121. Format                                   : AAC LC
  122. Format/Info                              : Advanced Audio Codec Low Complexity
  123. Codec ID                                 : A_AAC-2
  124. Duration                                 : 2 h 27 min
  125. Bit rate                                 : 320 kb/s
  126. Channel(s)                               : 2 channels
  127. Channel layout                           : L R
  128. Sampling rate                            : 48.0 kHz
  129. Frame rate                               : 46.875 FPS (1024 SPF)
  130. Compression mode                         : Lossy
  131. Stream size                              : 337 MiB (6%)
  132. Language                                 : English
  133. Default                                  : No
  134. Forced                                   : No
  135. Audio #6
  136. ID                                       : 7
  137. Format                                   : AAC LC
  138. Format/Info                              : Advanced Audio Codec Low Complexity
  139. Codec ID                                 : A_AAC-2
  140. Duration                                 : 2 h 27 min
  141. Bit rate                                 : 320 kb/s
  142. Channel(s)                               : 2 channels
  143. Channel layout                           : L R
  144. Sampling rate                            : 48.0 kHz
  145. Frame rate                               : 46.875 FPS (1024 SPF)
  146. Compression mode                         : Lossy
  147. Stream size                              : 337 MiB (6%)
  148. Language                                 : Chinese
  149. Default                                  : No
  150. Forced                                   : No
复制代码



保举请利用qBittorrent,utorrent,transmission等标准BT软件下载!以获得最快速度。奉求保种!





回复

使用道具 举报

蓝光币
46
发表于 2023-11-2 00:11:42 | 显示全部楼层
感谢宝贵的分享
回复

使用道具 举报

蓝光币
15
发表于 4 天前 | 显示全部楼层
感谢宝贵的分享
回复

使用道具 举报

懒得打字嘛,点击右侧快捷回复 【右侧内容,后台自定义】
您需要登录后才可以回帖 登录 | 立即加入

本版积分规则

Copyright © 2024 Comsenz Inc. Powered by 蓝光电影网

本站内容由用户自主分享和转载自互联网,转载目的在于传递更多信息,并不代表本网赞同其观点和对其真实性负责。

如有侵权、违反国家法律政策行为,请联系我们,我们会第一时间及时清除和处理!

举报反馈邮箱:4k1080.com@gmail.com

快速回复 返回顶部 返回列表