找回密码

蓝光电影网

查看: 2169|回复: 143

[剧情] 人生大事[中文字幕].Lighting.Up.The.Stars.2022.WEB-DL.1080p.H.265.AAC-CTRLTV 1.91GB

  [复制链接]
蓝光币
953
发表于 2022-8-27 19:07:35 | 显示全部楼层 |阅读模式
人生大事[中笔墨幕].Lighting.Up.The.Stars.2022.WEB-DL.1080p.H.265.AAC-CTRLTV 1.91GB-1.png

◎标  题 人生大事
◎译  名 Lighting Up The Stars / Funeral Family
◎年  代 2022
◎产  地 中国大陆 / 中国香港
◎类  别 剧情 / 家庭
◎语  言 武汉话 / 四川话 / 汉语普通话
◎上映日期 2022-06-24(中国大陆)
◎IMDb评分 7.1/10 (214人评价)
◎IMDb链接 https://www.imdb.com/title/tt15801594/
◎豆瓣评分 7.3/10 (294621人评价)
◎豆瓣链接 https://movie.douban.com/subject/35460157/
◎片  长 112分钟
◎导  演 刘江江 Jiangjiang Liu
◎编  剧 刘江江 Jiangjiang Liu
◎演  员 朱一龙 Yilong Zhu
       杨恩又 Enyou Yang
       王戈 Ge Wang
       刘陆 Lu Liu
       罗京民 Jingmin Luo
       吴倩 Qian Wu
       郑卫莉 WeiLi Zheng
       陈创 Chuang Chen
       李春嫒 Chun'ai Li
       钟宇升 Yusheng Zhong
       刘亚津 Yajin Liu
       小爱 Hao Liu
       韩延 Yan Han
       韩延 Yan Han
       李怅然
       于猛
       赵照 Zhao Zhao
       纪元 Ji Yuan
       王娜娜 Nana
       刘晓莎 Xiaosha Liu
◎简  介
  殡葬师莫三妹(朱一龙 饰)在刑满开释未几后的一次出殡中,碰到了孤儿武小文(杨恩又 饰),小文的出现,意外地改变了莫三妹对职业和生活的态度。
  1. ##### MediaInfo ######
  2. General
  3. Complete name                            : Lighting.Up.The.Stars.2022.WEB-DL.1080p.H.265.AAC-CTRLTV.mp4
  4. Format                                   : MPEG-4
  5. Format profile                           : Base Media
  6. Codec ID                                 : isom (isom/iso2/mp41)
  7. File size                                : 1.91 GiB
  8. Duration                                 : 1 h 47 min
  9. Overall bit rate                         : 2 543 kb/s
  10. Writing application                      : Lavf58.30.100
  11. Video
  12. ID                                       : 1
  13. Format                                   : HEVC
  14. Format/Info                              : High Efficiency Video Coding
  15. Format profile                           : [email protected]@Main
  16. Codec ID                                 : hev1
  17. Codec ID/Info                            : High Efficiency Video Coding
  18. Duration                                 : 1 h 47 min
  19. Bit rate                                 : 2 347 kb/s
  20. Width                                    : 1 920 pixels
  21. Height                                   : 720 pixels
  22. Display aspect ratio                     : 2.667
  23. Frame rate mode                          : Constant
  24. Frame rate                               : 24.000 FPS
  25. Color space                              : YUV
  26. Chroma subsampling                       : 4:2:0
  27. Bit depth                                : 8 bits
  28. Bits/(Pixel*Frame)                       : 0.071
  29. Stream size                              : 1.76 GiB (92%)
  30. Codec configuration box                  : hvcC
  31. Audio
  32. ID                                       : 2
  33. Format                                   : AAC LC
  34. Format/Info                              : Advanced Audio Codec Low Complexity
  35. Codec ID                                 : mp4a-40-2
  36. Duration                                 : 1 h 47 min
  37. Bit rate mode                            : Constant
  38. Bit rate                                 : 192 kb/s
  39. Channel(s)                               : 2 channels
  40. Channel layout                           : L R
  41. Sampling rate                            : 44.1 kHz
  42. Frame rate                               : 43.066 FPS (1024 SPF)
  43. Compression mode                         : Lossy
  44. Stream size                              : 146 MiB (7%)
  45. Default                                  : Yes
  46. Alternate group                          : 1
复制代码











回复

使用道具 举报

蓝光币
1
发表于 2022-8-27 20:27:22 | 显示全部楼层

其实我一直觉得楼主的品味不错!呵呵!蓝光电影网太棒了!
回复 支持 反对

使用道具 举报

蓝光币
126
发表于 2022-8-27 22:17:01 | 显示全部楼层
楼主发贴辛苦了,谢谢楼主分享!我觉得蓝光电影网是注册对了!
回复 支持 反对

使用道具 举报

蓝光币
94
发表于 2022-8-28 08:51:28 | 显示全部楼层
哈哈哈哈或或或或或或
回复 支持 反对

使用道具 举报

蓝光币
223
发表于 2022-8-28 10:26:56 | 显示全部楼层

我看不错噢 谢谢楼主!蓝光电影网越来越好!
回复 支持 反对

使用道具 举报

蓝光币
56
发表于 2022-8-28 12:27:08 | 显示全部楼层
我看不错噢 谢谢楼主!蓝光电影网越来越好!
回复 支持 反对

使用道具 举报

蓝光币
62
发表于 2022-8-28 14:25:12 | 显示全部楼层
楼主发贴辛苦了,谢谢楼主分享!我觉得蓝光电影网是注册对了!
回复 支持 反对

使用道具 举报

蓝光币
72
发表于 2022-8-28 16:34:21 | 显示全部楼层

既然你诚信诚意的推荐了,那我就勉为其难的看看吧!蓝光电影网不走平凡路。
回复 支持 反对

使用道具 举报

蓝光币
183
发表于 2022-8-28 20:36:00 | 显示全部楼层

论坛不能没有像楼主这样的人才啊!我会一直支持蓝光电影网。
回复 支持 反对

使用道具 举报

蓝光币
77
发表于 2022-8-28 23:59:16 | 显示全部楼层
我看不错噢 谢谢楼主!蓝光电影网越来越好!
回复 支持 反对

使用道具 举报

懒得打字嘛,点击右侧快捷回复 【右侧内容,后台自定义】
您需要登录后才可以回帖 登录 | 立即加入

本版积分规则

Archiver|小黑屋| 蓝光电影网 |网站地图

Copyright © 2021 Comsenz Inc. Powered by 蓝光电影网

蓝光电影网

本站内容由用户自主分享和转载自互联网,转载目的在于传递更多信息,并不代表本网赞同其观点和对其真实性负责。

如有侵权、违反国家法律政策行为,请联系我们,我们会第一时间及时清除和处理!

举报反馈邮箱:[email protected]

快速回复 返回顶部 返回列表