找回密码

蓝光电影网

查看: 1260|回复: 49

[2160p] 兵临城下 Enemy.at.The.Gates.2001.2160p.WEB-DL.DTS-HD.MA.TrueHD.5.1.DV.MKV.x265-DVSUX 30.44GB

[复制链接]
蓝光币
953
发表于 2022-9-2 21:11:20 | 显示全部楼层 |阅读模式
[img][/img]

◎标  题 兵临城下
◎译  名 决战中的较劲 / 大敌当前(台) / 敌对边沿(港)
◎片  名 Enemy at the Gates
◎年  代 2001
◎产  地 爱尔兰 / 英国 / 法国 / 德国 / 美国
◎类  别 剧情 / 历史 / 战争
◎语  言 英语 / 德语 / 俄语
◎上映日期 2001-07-21(中国大陆) / 2001-02-07(柏林电影节) / 2001-03-16(英国/美国)
◎IMDb评分 7.6/10 (253588人评价)
◎IMDb链接 https://www.imdb.com/title/tt0215750/
◎豆瓣评分 8.5/10 (170356人评价)
◎豆瓣链接 https://movie.douban.com/subject/1301726/
◎片  长 131 分钟
◎导  演 让-雅克·阿诺 Jean-Jacques Annaud
◎编  剧 让-雅克·阿诺 Jean-Jacques Annaud
       阿兰·戈达尔 Alain Godard
◎演  员 裘德·洛 Jude Law
       艾德·哈里斯 Ed Harris
       蕾切尔·薇兹 Rachel Weisz
       约瑟夫·费因斯 Joseph Fiennes
       鲍勃·霍斯金斯 Bob Hoskins
       朗·普尔曼 Ron Perlman
       埃娃·马特斯 Eva Mattes
       加布瑞尔·汤姆森 Gabriel Thomson
       马蒂亚斯·哈比希 Matthias Habich
       索菲·罗伊斯 Sophie Rois
       伊万·舍甫多夫 Ivan Shvedoff
       汉斯·马丁·施蒂尔 Hans Martin Stier
       克雷蒙斯·施伊克 Clemens Schick
       莱恩·库德里亚维斯基 Lenn Kudrjawizki
       马克西姆·科瓦莱夫斯基 Maxim Kovalevski
       格纳迪·文格洛夫 Gennadi Vengerov
       达·范·汉森德 Dan van Husen
       Markus Majowski Markus Majowski
       罗伯特·施塔德洛伯 Robert Stadlober
       霍尔格·汉德克 Holger Handtke
       马克·比肖夫 Marc Bischoff
       马克·扎克 Mark Zak
       Thomas Petruo Thomas Petruo
       汤姆·拉斯齐哈 Tom Wlaschiha
       Dana Cebulla Dana Cebulla
       维尔纳·德恩 Werner Daehn
       波热尔·尤内尔 Birol Ünel
       Vladimir Vilanov Vladimir Vilanov
       迈克尔·施内克 Michael Schenk
       Axel Neumann Axel Neumann
       Toby Cockerell Toby Cockerell
       埃迪·约瑟夫 Eddy Joseph
       Martin Glyn Murray Martin Glyn Murray
       瓦伦丁·普拉塔里努 Valentin Platareanu
       金锋 Feng Jin
       曲敬国 Jingguo Qu
        Mikhail N. Matveev
       André Kaminski André Kaminski
       让-雅克·阿诺 Jean-Jacques Annaud
       詹姆斯·霍纳 James Horner
       罗伯特·弗赖斯 Robert Fraisse
       Humphrey Dixon Humphrey Dixon
       诺艾尔·泊松 Noëlle Boisson
       Dominic Masters Dominic Masters
       史蒂文·劳伦斯 Steven Lawrence
       沃尔夫·克罗伊格 Wolf Kroeger
       Neil Lamont Neil Lamont
       彼得·弗兰西斯 Peter Francis
       Simon Wakefield Simon Wakefield
       詹蒂·叶茨 Janty Yates
       琳达·德维塔 Linda DeVetta
       Hasso von Hugo Hasso von Hugo
       艾伦·史姑娘 Allen Smith
       保罗·戈德史姑娘 Paul Goldsmith
       马丁·希尔 Martin Hill
       乔迪·约翰逊 Jody Johnson
       Merrin Jensen Merrin Jensen
       Alex Hope Alex Hope
       保罗·J·富兰克林 Paul J. Franklin
       彼特·贝布 Pete Bebb
       Robin Aristorenas Robin Aristorenas
       Duncan Robson Duncan Robson
       Mark Topping Mark Topping
       皮特·汉森 Pete Hanson
       Moritz Glaesle Moritz Glaesle
       约翰·霍格沃德 Jan Hogevold
       加文·格雷厄姆 Gavin Graham
       Frank Wegerhoff Frank Wegerhoff
       Michael Illingworth Michael Illingworth
       弗雷泽·丘吉尔 Frazer Churchill
       理查德·贝恩 Richard Bain
       Åsa Svedberg Åsa Svedberg
       汤姆·伍德 Tom Wood
       托马斯·坦嫩伯格 Thomas Tannenberger
       Paul Riddle Paul Riddle
       查理·诺伯 Charlie Noble
       Gavin Toomey Gavin Toomey
       马克·尼尔姆斯 Mark Nelmes
       彼得·江 Peter Chiang
       Olcun Tan Olcun Tan
       彼得·迈泽尔斯 Peter Muyzers
       派迪·伊森 Paddy Eason
       Ed Hawkins Ed Hawkins
       萨姆·布里奇 Sam Breach
◎标  签 二战 / 战争 / 狙击 / 美国 / 裘德·洛 / JudeLaw / 德国 / 历史
◎简  介

  斯大林格勒战争中,瓦西里(裘德•洛 Jude Law 饰)是一个威震军队的神枪手。他的好枪法百步穿杨,令仇敌闻风丧胆。                                    
                                为了激励士气,建立楷模,瓦西里的战友——苏军文宣部军官丹尼洛夫(约瑟夫•费因斯 Joseph Fiennes 饰)在报纸上大量刊登瓦西里的豪杰业绩,令瓦西里的形象更加高峻。但是,坦妮娅(雷切尔•薇姿 Rachel Weisz 饰)的出现,让瓦西里和丹尼洛夫都同时迷恋上了这个飒爽女兵。但塔妮娅喜好的是瓦西里,这让丹尼洛夫大为吃醋。                                    
                                另一方面,德军派出了他们的狙击手康尼(艾德•哈里斯 Ed Harris 饰),让同是神枪手的他对抗瓦西里。在硝烟满盈的疆场上,瓦西里和康尼起头了斗智斗勇的决战。
  1. Video
  2. ID                                       : 1
  3. Format                                   : HEVC
  4. Format/Info                              : High Efficiency Video Coding
  5. Format profile                           : Main [email protected]@High
  6. HDR format                               : Dolby Vision, Version 1.0, dvhe.05.06, BL+RPU
  7. Codec ID                                 : V_MPEGH/ISO/HEVC
  8. Duration                                 : 2 h 11 min
  9. Bit rate                                 : 24.8 Mb/s
  10. Width                                    : 3 840 pixels
  11. Height                                   : 1 634 pixels
  12. Display aspect ratio                     : 2.35:1
  13. Frame rate mode                          : Constant
  14. Frame rate                               : 23.976 (24000/1001/189150) FPS
  15. Color space                              : YUV
  16. Chroma subsampling                       : 4:2:0
  17. Bit depth                                : 10 bits
  18. Bits/(Pixel*Frame)                       : 0.165
  19. Stream size                              : 22.7 GiB (75%)
  20. Default                                  : Yes
  21. Forced                                   : No
  22. Audio #1
  23. ID                                       : 2
  24. Format                                   : MLP FBA
  25. Format/Info                              : Meridian Lossless Packing FBA
  26. Commercial name                          : Dolby TrueHD
  27. Codec ID                                 : A_TRUEHD
  28. Duration                                 : 2 h 11 min
  29. Bit rate mode                            : Variable
  30. Bit rate                                 : 3 485 kb/s
  31. Maximum bit rate                         : 4 950 kb/s
  32. Channel(s)                               : 6 channels
  33. Channel layout                           : L R C LFE Ls Rs
  34. Sampling rate                            : 48.0 kHz
  35. Frame rate                               : 1 200.000 FPS (40 SPF)
  36. Compression mode                         : Lossless
  37. Stream size                              : 3.19 GiB (10%)
  38. Title                                    : TrueHD 5.1
  39. Language                                 : English
  40. Default                                  : Yes
  41. Forced                                   : No
  42. Audio #2
  43. ID                                       : 3
  44. Format                                   : DTS XLL
  45. Format/Info                              : Digital Theater Systems
  46. Commercial name                          : DTS-HD Master Audio
  47. Codec ID                                 : A_DTS
  48. Duration                                 : 2 h 11 min
  49. Bit rate mode                            : Variable
  50. Bit rate                                 : 3 866 kb/s
  51. Channel(s)                               : 6 channels
  52. Channel layout                           : C L R Ls Rs LFE
  53. Sampling rate                            : 48.0 kHz
  54. Frame rate                               : 93.750 FPS (512 SPF)
  55. Bit depth                                : 24 bits
  56. Compression mode                         : Lossless
  57. Stream size                              : 3.54 GiB (12%)
  58. Title                                    : DTS-HD MA 5.1
  59. Language                                 : English
  60. Default                                  : No
  61. Forced                                   : No
  62. Audio #3
  63. ID                                       : 4
  64. Format                                   : AC-3
  65. Format/Info                              : Audio Coding 3
  66. Commercial name                          : Dolby Digital
  67. Codec ID                                 : A_AC3
  68. Duration                                 : 2 h 11 min
  69. Bit rate mode                            : Constant
  70. Bit rate                                 : 640 kb/s
  71. Channel(s)                               : 6 channels
  72. Channel layout                           : L R C LFE Ls Rs
  73. Sampling rate                            : 48.0 kHz
  74. Frame rate                               : 31.250 FPS (1536 SPF)
  75. Compression mode                         : Lossy
  76. Stream size                              : 600 MiB (2%)
  77. Title                                    : DD 5.1
  78. Language                                 : English
  79. Service kind                             : Complete Main
  80. Default                                  : No
  81. Forced                                   : No
  82. Audio #4
  83. ID                                       : 5
  84. Format                                   : AC-3
  85. Format/Info                              : Audio Coding 3
  86. Commercial name                          : Dolby Digital
  87. Codec ID                                 : A_AC3
  88. Duration                                 : 2 h 11 min
  89. Bit rate mode                            : Constant
  90. Bit rate                                 : 384 kb/s
  91. Channel(s)                               : 6 channels
  92. Channel layout                           : L R C LFE Ls Rs
  93. Sampling rate                            : 48.0 kHz
  94. Frame rate                               : 31.250 FPS (1536 SPF)
  95. Compression mode                         : Lossy
  96. Stream size                              : 360 MiB (1%)
  97. Title                                    : DD 5.1
  98. Language                                 : English
  99. Service kind                             : Complete Main
  100. Default                                  : No
  101. Forced                                   : No
  102. Text #1
  103. ID                                       : 6
  104. Format                                   : UTF-8
  105. Codec ID                                 : S_TEXT/UTF8
  106. Codec ID/Info                            : UTF-8 Plain Text
  107. Duration                                 : 2 h 9 min
  108. Bit rate                                 : 39 b/s
  109. Frame rate                               : 0.129 FPS
  110. Count of elements                        : 1001
  111. Stream size                              : 37.0 KiB (0%)
  112. Language                                 : English
  113. Default                                  : Yes
  114. Forced                                   : No
  115. Text #2
  116. ID                                       : 7
  117. Format                                   : UTF-8
  118. Codec ID                                 : S_TEXT/UTF8
  119. Codec ID/Info                            : UTF-8 Plain Text
  120. Duration                                 : 2 h 9 min
  121. Bit rate                                 : 44 b/s
  122. Frame rate                               : 0.144 FPS
  123. Count of elements                        : 1123
  124. Stream size                              : 42.0 KiB (0%)
  125. Title                                    : SDH
  126. Language                                 : English
  127. Default                                  : No
  128. Forced                                   : No
  129. Menu
  130. 00:00:00.000                             : en:Chapter 01
  131. 00:02:46.708                             : en:Chapter 02
  132. 00:09:47.754                             : en:Chapter 03
  133. 00:15:11.327                             : en:Chapter 04
  134. 00:22:09.954                             : en:Chapter 05
  135. 00:34:13.178                             : en:Chapter 06
  136. 00:37:08.228                             : en:Chapter 07
  137. 00:46:18.778                             : en:Chapter 08
  138. 00:50:44.753                             : en:Chapter 09
  139. 00:56:05.573                             : en:Chapter 10
  140. 01:02:40.802                             : en:Chapter 11
  141. 01:08:23.978                             : en:Chapter 12
  142. 01:16:35.845                             : en:Chapter 13
  143. 01:22:36.456                             : en:Chapter 14
  144. 01:29:49.556                             : en:Chapter 15
  145. 01:35:51.960                             : en:Chapter 16
  146. 01:42:05.041                             : en:Chapter 17
  147. 01:55:02.360                             : en:Chapter 18
  148. 01:57:27.213                             : en:Chapter 19
  149. 02:01:20.113                             : en:Chapter 20
复制代码




                                       
                                       

                                       
                                       
                                       




回复

使用道具 举报

蓝光币
208
发表于 2022-9-2 21:42:12 | 显示全部楼层

既然你诚信诚意的推荐了,那我就勉为其难的看看吧!蓝光电影网不走平凡路。
回复 支持 反对

使用道具 举报

蓝光币
97
发表于 2022-9-2 22:33:09 | 显示全部楼层
感谢分享!
回复

使用道具 举报

蓝光币
80
发表于 2022-9-3 15:18:55 | 显示全部楼层

楼主,大恩不言谢了!蓝光电影网是最棒的!
回复 支持 反对

使用道具 举报

蓝光币
32
发表于 2022-9-3 15:41:54 | 显示全部楼层

这个帖子不回对不起自己!我想我是一天也不能离开蓝光电影网。
回复 支持 反对

使用道具 举报

蓝光币
3
发表于 2022-9-3 16:22:02 | 显示全部楼层
楼主发贴辛苦了,谢谢楼主分享!我觉得蓝光电影网是注册对了!
回复 支持 反对

使用道具 举报

蓝光币
407
发表于 2022-9-3 17:52:34 | 显示全部楼层

楼主发贴辛苦了,谢谢楼主分享!我觉得蓝光电影网是注册对了!
回复 支持 反对

使用道具 举报

蓝光币
7
发表于 2022-9-3 19:25:53 | 显示全部楼层

其实我一直觉得楼主的品味不错!呵呵!蓝光电影网太棒了!
回复 支持 反对

使用道具 举报

蓝光币
29
发表于 2022-9-3 19:33:39 | 显示全部楼层

楼主太厉害了!楼主,电影应该很好看我觉得蓝光电影网真是个好地方!
回复 支持 反对

使用道具 举报

蓝光币
466
发表于 2022-9-3 20:21:24 | 显示全部楼层

既然你诚信诚意的推荐了,那我就勉为其难的看看吧!蓝光电影网不走平凡路。
回复 支持 反对

使用道具 举报

懒得打字嘛,点击右侧快捷回复 【右侧内容,后台自定义】
您需要登录后才可以回帖 登录 | 立即加入

本版积分规则

Archiver|小黑屋| 蓝光电影网 |网站地图

Copyright © 2021 Comsenz Inc. Powered by 蓝光电影网

蓝光电影网

本站内容由用户自主分享和转载自互联网,转载目的在于传递更多信息,并不代表本网赞同其观点和对其真实性负责。

如有侵权、违反国家法律政策行为,请联系我们,我们会第一时间及时清除和处理!

举报反馈邮箱:[email protected]

快速回复 返回顶部 返回列表