找回密码

蓝光电影网

查看: 2086|回复: 44

[2160p-WEB] 雷神4:爱与雷霆.Thor.Love.and.Thunder.2022.2160p.WEB-DL.x265.10bit.SDR.DDP5.1.Atmos-NOGRP 17.38GB

[复制链接]
蓝光币
953
发表于 2022-9-8 12:37:01 | 显示全部楼层 |阅读模式
雷神4:爱与雷霆.Thor.Love.and.Thunder.2022.2160p.WEB-DL.x265.10bit.SDR.DDP5.1.Atmos-NOGRP 17.38GB-1.jpg

◎译  名 雷神4:爱与雷霆 / 雷奇异侠4:爱与雷霆(港) / 雷神索尔:爱与雷霆(台) / 雷神4
◎片  名 Thor: Love and Thunder
◎年  代 2022
◎产  地 澳大利亚 / 美国
◎类  别 笑剧 / 行动 / 恋爱 / 科幻 / 奇异 / 冒险
◎语  言 英语
◎上映日期 2022-07-06(中国香港) / 2022-07-08(美国) / 2022-09-08(美国收集)
◎豆瓣评星 ★★★☆☆
◎豆瓣评分 5.9/10 from 20,940 users
◎豆瓣链接 https://movie.douban.com/subject/34477861/
◎片  长 119分钟
◎导  演 塔伊加·维迪提 / Taika Waititi
◎演  员 克里斯·海姆斯沃斯 / Chris Hemsworth | 饰 Thor
      娜塔莉·波特曼 / Natalie Portman | 饰 Jane Foster / Mighty Thor
      克里斯蒂安·贝尔 / Christian Bale | 饰 Gorr the God Butcher
      泰莎·汤普森 / Tessa Thompson | 饰 Valkyrie
      塔伊加·维迪提 / Taika Waititi | 配 Korg
      罗素·克劳 / Russell Crowe | 饰 Zeus
      杰米·亚历山大 / Jaimie Alexander | 饰 Sif
      克里斯·帕拉特 / Chris Pratt | 饰 Peter Quill / Star-Lord
      戴夫·巴蒂斯塔 / Dave Bautista | 饰 Drax
      凯伦·吉兰 / Karen Gillan | 饰 Nebula
      庞·克莱门捷夫 / Pom Klementieff | 饰 Mantis
      肖恩·古恩 / Sean Gunn | 饰 Kraglin
      范·迪塞尔 / Vin Diesel | 配 Groot
      布莱德利·库珀 / Bradley Cooper | 配 Rocket
      卡尔利·里斯 / Carly Rees  | 饰 Miek
      本·法尔科内 / Ben Falcone | 饰 Asgardian Stage Manager
      史蒂芬·库里 / Stephen Curry | 饰 King Yakan
      鲍比·霍兰德·汉顿 / Bobby Holland Hanton | 饰 Habooska The Horrible
      戴利·皮尔森 / Daley Pearson | 饰 Darryl The Tour Guide
      西蒙·拉塞尔·比尔 / Simon Russell Beale | 饰 Dionysus
      乔尼·布鲁 / Jonny Brugh | 饰 Rapu
      布鲁克·斯塔奇威尔 / Brooke Satchwell | 饰 Indigarrian Woman Glenda
      埃尔莎·帕塔奇 / Elsa Pataky | 饰 Wolf Woman
      埃莉扎·德苏扎 / Eliza D'Souza | 饰 Grace
      卡恩·古尔杜尔 / Kaan Guldur | 饰 Wolfboy
      普里西拉·道伊西 / Priscilla Doueihy | 饰 Artemis God
      斯蒂芬·亨特 / Stephen Hunter | 饰 Fur God
      印第安娜·伊万斯 / Indiana Evans | 饰 Zeusette
      艾娃·卡约菲丽斯 / Ava Caryofyllis | 饰 Young Jane
      本·辛克莱尔 / Ben Sinclair | 饰 Science Friend
      博特·高登斯汀 / Brett Goldstein | 饰 Hercules
      卢克·海姆斯沃斯 / Luke Hemsworth | 饰 Actor Thor
      马特·达蒙 / Matt Damon | 饰 Actor Loki
      梅丽莎·麦卡西 / Melissa McCarthy | 饰 Actor Hela
      山姆·尼尔 / Sam Neill | 饰 Actor Odin
      马克·卡西米尔·戴妮奇斯 / Mark Casimir Dyniewicz | 饰 New Asgardian
◎编  剧 塔伊加·维迪提 / Taika Waititi
      詹尼弗·凯廷·罗宾逊 / Jennifer Kaytin Robinson
      斯坦·李 / Stan Lee
      杰森·亚伦 / Jason Aaron
◎制  片  人 凯文·费奇 / Kevin Feige
◎音  乐 马克·马瑟斯鲍夫 / Mark Mothersbaugh
◎服  装 玛耶斯·C·鲁贝奥 / Mayes C. Rubeo

◎简  介 

  影片故事发在在《复仇者同盟4:终局之战》事务以后,雷神索尔(克里斯·海姆斯沃斯 饰)踏上了一段他从未履历过的旅程:找回自我。但索尔的退休计划却被诡计消灭众神的屠神者格尔(克里斯蒂安·贝尔 饰)打断,他只好与女武神瓦尔基里(泰莎·汤普森 饰)和寇格(塔伊加·维迪提 饰)再次联手,其间更发现自己八年未见的前女友简·福斯特(娜塔莉·波特曼 饰)获得了雷神之力、挥舞着多年前在自己眼前扑灭的雷神之锤,令索尔惊奇不已。他们一路踏上了星际冒险,以揭开格尔的复仇之谜,并在为时已晚之前阻止他。
  1. Video
  2. ID : 1
  3. Format : HEVC
  4. Format/Info : High Efficiency Video Coding
  5. Format profile : Main [email protected]@High
  6. Codec ID : V_MPEGH/ISO/HEVC
  7. Duration : 1 h 58 min
  8. Bit rate : 20.2 Mb/s
  9. Width : 3 840 pixels
  10. Height : 1 608 pixels
  11. Display aspect ratio : 2.40:1
  12. Frame rate mode : Constant
  13. Frame rate : 23.976 FPS
  14. Color space : YUV
  15. Chroma subsampling : 4:2:0
  16. Bit depth : 10 bits
  17. Bits/(Pixel*Frame) : 0.136
  18. Stream size : 16.7 GiB (96%)
  19. Default : Yes
  20. Forced : No
  21. Color range : Limited
  22. Color primaries : BT.709
  23. Transfer characteristics : BT.709
  24. Matrix coefficients : BT.709

  25. Audio
  26. ID : 2
  27. Format : E-AC-3 JOC
  28. Format/Info : Enhanced AC-3 with Joint Object Coding
  29. Commercial name : Dolby Digital Plus with Dolby Atmos
  30. Codec ID : A_EAC3
  31. Duration : 1 h 58 min
  32. Bit rate mode : Constant
  33. Bit rate : 768 kb/s
  34. Channel(s) : 6 channels
  35. Channel layout : L R C LFE Ls Rs
  36. Sampling rate : 48.0 kHz
  37. Frame rate : 31.250 FPS (1536 SPF)
  38. Compression mode : Lossy
  39. Stream size : 652 MiB (4%)
  40. Language : English
  41. Service kind : Complete Main
  42. Default : Yes
  43. Forced : No
  44. Complexity index : 16
  45. Number of dynamic objects : 15
  46. Bed channel count : 1 channel
  47. Bed channel configuration : LFE

  48. Text #1
  49. ID : 3
  50. Format : UTF-8
  51. Codec ID : S_TEXT/UTF8
  52. Codec ID/Info : UTF-8 Plain Text
  53. Duration : 1 h 57 min
  54. Bit rate : 55 b/s
  55. Frame rate : 0.226 FPS
  56. Count of elements : 1598
  57. Stream size : 47.5 KiB (0%)
  58. Language : English
  59. Default : Yes
  60. Forced : No

  61. Text #2
  62. ID : 4
  63. Format : UTF-8
  64. Codec ID : S_TEXT/UTF8
  65. Codec ID/Info : UTF-8 Plain Text
  66. Duration : 1 h 57 min
  67. Bit rate : 55 b/s
  68. Frame rate : 0.228 FPS
  69. Count of elements : 1613
  70. Stream size : 47.6 KiB (0%)
  71. Title : Latin American
  72. Language : Spanish
  73. Default : No
  74. Forced : No

  75. Menu
  76. 00:00:00.000 : en:Chapter 01
  77. 00:06:45.155 : en:Chapter 02
  78. 00:10:11.319 : en:Chapter 03
  79. 00:14:23.780 : en:Chapter 04
  80. 00:18:13.426 : en:Chapter 05
  81. 00:20:59.509 : en:Chapter 06
  82. 00:21:47.807 : en:Chapter 07
  83. 00:27:00.995 : en:Chapter 08
  84. 00:28:16.196 : en:Chapter 09
  85. 00:29:52.250 : en:Chapter 10
  86. 00:31:24.509 : en:Chapter 11
  87. 00:35:15.115 : en:Chapter 12
  88. 00:38:40.445 : en:Chapter 13
  89. 00:45:37.445 : en:Chapter 14
  90. 00:53:04.225 : en:Chapter 15
  91. 01:06:19.396 : en:Chapter 16
  92. 01:14:16.915 : en:Chapter 17
  93. 01:24:35.825 : en:Chapter 18
  94. 01:28:31.186 : en:Chapter 19
  95. 01:30:20.003 : en:Chapter 20
  96. 01:34:17.657 : en:Chapter 21
  97. 01:38:12.684 : en:Chapter 22
  98. 01:44:45.535 : en:Chapter 23
  99. 01:48:17.622 : en:Chapter 24
  100. 01:50:03.436 : en:Chapter 25
  101. 01:51:14.716 : en:Chapter 26
复制代码
雷神4:爱与雷霆.Thor.Love.and.Thunder.2022.2160p.WEB-DL.x265.10bit.SDR.DDP5.1.Atmos-NOGRP 17.38GB-2.png
雷神4:爱与雷霆.Thor.Love.and.Thunder.2022.2160p.WEB-DL.x265.10bit.SDR.DDP5.1.Atmos-NOGRP 17.38GB-3.png
雷神4:爱与雷霆.Thor.Love.and.Thunder.2022.2160p.WEB-DL.x265.10bit.SDR.DDP5.1.Atmos-NOGRP 17.38GB-4.png










回复

使用道具 举报

蓝光币
1012
发表于 2022-9-8 16:06:59 | 显示全部楼层
谢谢楼主提供好资源
回复 支持 1 反对 0

使用道具 举报

蓝光币
10
发表于 2022-9-8 20:39:29 | 显示全部楼层
不能下载吗?
回复 支持 反对

使用道具 举报

蓝光币
556
发表于 2022-9-8 22:05:33 | 显示全部楼层

这个帖子不回对不起自己!我想我是一天也不能离开蓝光电影网。
回复 支持 反对

使用道具 举报

蓝光币
1
发表于 2022-9-8 22:47:29 | 显示全部楼层
谢谢楼主提供好资源
回复 支持 反对

使用道具 举报

蓝光币
29
发表于 2022-9-8 22:59:44 | 显示全部楼层

这东西我收了!谢谢楼主!蓝光电影网真好!
回复 支持 反对

使用道具 举报

蓝光币
3
发表于 2022-9-9 07:41:35 | 显示全部楼层
没有蓝光币,好痛苦啊
回复 支持 反对

使用道具 举报

蓝光币
28
发表于 2022-9-9 08:18:19 | 显示全部楼层

这东西我收了!谢谢楼主!蓝光电影网真好!
回复 支持 反对

使用道具 举报

蓝光币
85
发表于 2022-9-9 14:41:42 | 显示全部楼层

楼主太厉害了!楼主,电影应该很好看我觉得蓝光电影网真是个好地方!
回复 支持 反对

使用道具 举报

蓝光币
1
发表于 2022-9-9 15:08:44 | 显示全部楼层
谢谢楼主的慷慨
回复 支持 反对

使用道具 举报

懒得打字嘛,点击右侧快捷回复 【右侧内容,后台自定义】
您需要登录后才可以回帖 登录 | 立即加入

本版积分规则

Archiver|小黑屋| 蓝光电影网 |网站地图

Copyright © 2021 Comsenz Inc. Powered by 蓝光电影网

蓝光电影网

本站内容由用户自主分享和转载自互联网,转载目的在于传递更多信息,并不代表本网赞同其观点和对其真实性负责。

如有侵权、违反国家法律政策行为,请联系我们,我们会第一时间及时清除和处理!

举报反馈邮箱:[email protected]

快速回复 返回顶部 返回列表