找回密码

蓝光电影网

查看: 66|回复: 0

[2160p] 之后4 After.Ever.Happy.2022.2160p.WEB-DL.x265.10bit.SDR.DD5.1-NOGRP 8.17GB

[复制链接]
蓝光币
953
发表于 前天 16:39 | 显示全部楼层 |阅读模式
[img][/img]

◎译  名 以后4 / After 4 / После. Глава 4
◎片  名 After Ever Happy
◎年  代 2022
◎产  地 美国
◎类  别 剧情 / 恋爱
◎语  言 英语
◎上映日期 2022-09-07(美国)
◎IMDb链接 https://www.imdb.com/title/tt13070038/
◎豆瓣链接 https://movie.douban.com/subject/35221423/
◎片  长 120分钟
◎导  演 卡斯蒂利·兰登 Castille Landon (id:1242008)
◎编  剧 莎伦·索博伊尔 Sharon Soboil (id:1461659)
       安娜·托德 Anna Todd (id:1411162)
◎演  员 赫洛·费因斯-提芬 Hero Fiennes Tiffin (id:1226711)
       约瑟芬·兰福德 Josephine Langford (id:1377411)
       路易丝·隆巴德 Louise Lombard (id:1049672)
       基亚娜·马德拉 Kiana Madeira (id:1360691)
       卡特·詹金斯 Carter Jenkins (id:1049538)
       罗伯·艾斯特斯 Rob Estes (id:1010642)
       钱斯·佩尔多莫 Chance Perdomo (id:1408633)
       杰克·班戴拉 Jack Bandeira (id:1425671)
       阿塔纳斯·斯雷布雷夫 Atanas Srebrev (id:1195460)
       沃利扎·比尼夫 Velizar Binev (id:1067224)
◎简  介

  [以后4]报告一个过往的奥秘摆荡了Hardin坚不成摧的表面,随后Tessa遭受了一场悲剧,使他们的关系接近解体。
  1. Video
  2. ID                                       : 1
  3. Format                                   : HEVC
  4. Format/Info                              : High Efficiency Video Coding
  5. Format profile                           : Main [email protected]@High
  6. Codec ID                                 : V_MPEGH/ISO/HEVC
  7. Duration                                 : 1 h 35 min
  8. Bit rate                                 : 11.9 Mb/s
  9. Width                                    : 3 832 pixels
  10. Height                                   : 1 596 pixels
  11. Display aspect ratio                     : 2.40:1
  12. Frame rate mode                          : Constant
  13. Frame rate                               : 23.976 FPS
  14. Color space                              : YUV
  15. Chroma subsampling                       : 4:2:0
  16. Bit depth                                : 10 bits
  17. Bits/(Pixel*Frame)                       : 0.081
  18. Stream size                              : 7.92 GiB (97%)
  19. Default                                  : No
  20. Forced                                   : No
  21. Color range                              : Limited
  22. Color primaries                          : BT.709
  23. Transfer characteristics                 : BT.709
  24. Matrix coefficients                      : BT.709

  25. Audio
  26. ID                                       : 2
  27. Format                                   : AC-3
  28. Format/Info                              : Audio Coding 3
  29. Commercial name                          : Dolby Digital
  30. Codec ID                                 : A_AC3
  31. Duration                                 : 1 h 35 min
  32. Bit rate mode                            : Constant
  33. Bit rate                                 : 384 kb/s
  34. Channel(s)                               : 6 channels
  35. Channel layout                           : L R C LFE Ls Rs
  36. Sampling rate                            : 48.0 kHz
  37. Frame rate                               : 31.250 FPS (1536 SPF)
  38. Compression mode                         : Lossy
  39. Stream size                              : 262 MiB (3%)
  40. Language                                 : English
  41. Service kind                             : Complete Main
  42. Default                                  : No
  43. Forced                                   : No

  44. Text
  45. ID                                       : 3
  46. Format                                   : UTF-8
  47. Codec ID                                 : S_TEXT/UTF8
  48. Codec ID/Info                            : UTF-8 Plain Text
  49. Duration                                 : 1 h 32 min
  50. Bit rate                                 : 62 b/s
  51. Frame rate                               : 0.253 FPS
  52. Count of elements                        : 1411
  53. Stream size                              : 42.7 KiB (0%)
  54. Language                                 : English
  55. Default                                  : No
  56. Forced                                   : No
复制代码




                                       
                                       

                                       
                                       
                                       




回复

使用道具 举报

懒得打字嘛,点击右侧快捷回复 【右侧内容,后台自定义】
您需要登录后才可以回帖 登录 | 立即加入

本版积分规则

Archiver|小黑屋| 蓝光电影网 |网站地图

Copyright © 2021 Comsenz Inc. Powered by 蓝光电影网

蓝光电影网

本站内容由用户自主分享和转载自互联网,转载目的在于传递更多信息,并不代表本网赞同其观点和对其真实性负责。

如有侵权、违反国家法律政策行为,请联系我们,我们会第一时间及时清除和处理!

举报反馈邮箱:[email protected]

快速回复 返回顶部 返回列表