找回密码

蓝光电影网

查看: 21|回复: 0

[2160p] 嘻哈梦想 On.The.Come.Up.2022.2160p.WEB-DL.x265.10bit.SDR.DDP5.1.Atmos-NAISU 17.29GB

[复制链接]
蓝光币
953
发表于 前天 16:45 | 显示全部楼层 |阅读模式
[img][/img]

◎译  名 嘻哈胡想
◎片  名 On the Come Up
◎年  代 2022
◎产  地 美国
◎类  别 剧情 / 笑剧 / 音乐
◎语  言 英语
◎上映日期 2022-09-09(多伦多电影节) / 2022-09-23(美国收集)
◎IMDb链接 https://www.imdb.com/title/tt9783730/
◎豆瓣链接 https://movie.douban.com/subject/34970178/
◎片  长 115分钟
◎导  演 桑娜·莱瑟 Sanaa Lathan (id:1049584)
◎编  剧 卡伊·耶贡 Kay Oyegun (id:1401604)
       安吉·托马斯 Angie Thomas (id:1403770)
◎演  员 桑娜·莱瑟 Sanaa Lathan (id:1049584)
       达明·乔伊·伦道夫 Da'Vine Joy Randolph (id:1365682)
       Lil Yachty Lil Yachty (id:1398265)
       马索·曼恩 Method Man (id:1002776)
       迈克·艾普斯 Mike Epps (id:1040592)
       尼贾·布雷尼亚 Nijah Brenea (id:1474439)
       库利·卡尔文 Cuyle Carvin (id:1250713)
       凯莉·科林斯·林茨 Kelly Collins Lintz (id:1404556)
       施奎塔·詹姆斯 Shiquita James (id:1423082)
       杰克琳·怀特 Jaclyn White (id:1440513)
       蒂姆·洛斯 Tim Ross (id:1414280)
       布鲁诺·罗斯 Bruno Rose (id:1413571)
◎简  介

  As the daughter of an underground hip-hop legend who died right before he hit big, Bri's got massive shoes to fill. But it's hard as she is labeled a hoodlum at school, and faces financial crisis after her mom loses her job. So Bri pours her anger and frustration into her first song, which goes viral, for all the wrong reasons. Bri soon finds herself at the center of a controve...
  1. Video
  2. ID                                       : 1
  3. Format                                   : HEVC
  4. Format/Info                              : High Efficiency Video Coding
  5. Format profile                           : Main [email protected]@High
  6. Codec ID                                 : V_MPEGH/ISO/HEVC
  7. Duration                                 : 1 h 55 min
  8. Bit rate                                 : 20.2 Mb/s
  9. Width                                    : 3 840 pixels
  10. Height                                   : 1 608 pixels
  11. Display aspect ratio                     : 2.40:1
  12. Frame rate mode                          : Constant
  13. Frame rate                               : 23.976 (24000/1001/189150) FPS
  14. Color space                              : YUV
  15. Chroma subsampling                       : 4:2:0
  16. Bit depth                                : 10 bits
  17. Bits/(Pixel*Frame)                       : 0.136
  18. Stream size                              : 16.3 GiB (94%)
  19. Language                                 : English
  20. Default                                  : Yes
  21. Forced                                   : No
  22. Color range                              : Limited
  23. Color primaries                          : BT.709
  24. Transfer characteristics                 : BT.709
  25. Matrix coefficients                      : BT.709
  26. Audio
  27. ID                                       : 2
  28. Format                                   : E-AC-3 JOC
  29. Format/Info                              : Enhanced AC-3 with Joint Object Coding
  30. Commercial name                          : Dolby Digital Plus with Dolby Atmos
  31. Codec ID                                 : A_EAC3
  32. Duration                                 : 1 h 55 min
  33. Bit rate mode                            : Constant
  34. Bit rate                                 : 768 kb/s
  35. Channel(s)                               : 6 channels
  36. Channel layout                           : L R C LFE Ls Rs
  37. Sampling rate                            : 48.0 kHz
  38. Frame rate                               : 31.250 FPS (1536 SPF)
  39. Compression mode                         : Lossy
  40. Stream size                              : 637 MiB (4%)
  41. Language                                 : English
  42. Service kind                             : Complete Main
  43. Default                                  : Yes
  44. Forced                                   : No
  45. Complexity index                         : 16
  46. Number of dynamic objects                : 15
  47. Bed channel count                        : 1 channel
  48. Bed channel configuration                : LFE
  49. Text
  50. ID                                       : 3
  51. Format                                   : UTF-8
  52. Codec ID                                 : S_TEXT/UTF8
  53. Codec ID/Info                            : UTF-8 Plain Text
  54. Title                                    : English
  55. Language                                 : English
  56. Default                                  : No
  57. Forced                                   : No
复制代码




                                       
                                       

                                       
                                       
                                       




回复

使用道具 举报

懒得打字嘛,点击右侧快捷回复 【右侧内容,后台自定义】
您需要登录后才可以回帖 登录 | 立即加入

本版积分规则

Archiver|小黑屋| 蓝光电影网 |网站地图

Copyright © 2021 Comsenz Inc. Powered by 蓝光电影网

蓝光电影网

本站内容由用户自主分享和转载自互联网,转载目的在于传递更多信息,并不代表本网赞同其观点和对其真实性负责。

如有侵权、违反国家法律政策行为,请联系我们,我们会第一时间及时清除和处理!

举报反馈邮箱:[email protected]

快速回复 返回顶部 返回列表