找回密码

蓝光电影网

查看: 22|回复: 0

[科幻] 末日协议 The.Deal.2022.1080p.WEBRip.DD5.1.x264-CM 4.66GB

[复制链接]
蓝光币
975
发表于 2022-9-23 17:48:58 | 显示全部楼层 |阅读模式
[img][/img]

◎标  题 末日协议
◎片  名 The Deal
◎年  代 2022
◎产  地 美国 / 塞尔维亚
◎类  别 科幻
◎语  言 英语
◎IMDb评分 7.3/10 (17人评价)
◎IMDb链接 https://www.imdb.com/title/tt11220408/
◎豆瓣链接 https://movie.douban.com/subject/35655208/
◎编  剧 素玛立·蒙塔诺 Sumalee Montano
◎演  员 Emma Fischer Emma Fischer
       阿拉斯塔尔·麦肯泽 Alastair Mackenzie
       素玛立·蒙塔诺 Sumalee Montano
◎简  介

  An unprecedented pandemic has ravaged the planet, leaving resources insufficient to maintain the human population. To combat the crisis, a totalitarian governing body known as The Bureau established "The Deal.” Accept The Deal, and you'll receive a job, housing, and medical care that will keep you safe and healthy for twenty more years, at which point you must take your own lif...
  1. Video
  2. ID                                       : 1
  3. Format                                   : AVC
  4. Format/Info                              : Advanced Video Codec
  5. Format profile                           : [email protected]
  6. Format settings                          : CABAC / 5 Ref Frames
  7. Format settings, CABAC                   : Yes
  8. Format settings, Reference frames        : 5 frames
  9. Codec ID                                 : V_MPEG4/ISO/AVC
  10. Duration                                 : 1 h 35 min
  11. Bit rate                                 : 6 626 kb/s
  12. Width                                    : 1 920 pixels
  13. Height                                   : 802 pixels
  14. Display aspect ratio                     : 2.40:1
  15. Frame rate mode                          : Constant
  16. Frame rate                               : 24.000 FPS
  17. Color space                              : YUV
  18. Chroma subsampling                       : 4:2:0
  19. Bit depth                                : 8 bits
  20. Scan type                                : Progressive
  21. Bits/(Pixel*Frame)                       : 0.179
  22. Stream size                              : 4.40 GiB (94%)
  23. Language                                 : English
  24. Default                                  : Yes
  25. Forced                                   : No
  26. Color range                              : Limited
  27. Color primaries                          : BT.709
  28. Transfer characteristics                 : BT.709
  29. Matrix coefficients                      : BT.709
  30. Audio
  31. ID                                       : 2
  32. Format                                   : AC-3
  33. Format/Info                              : Audio Coding 3
  34. Commercial name                          : Dolby Digital
  35. Codec ID                                 : A_AC3
  36. Duration                                 : 1 h 35 min
  37. Bit rate mode                            : Constant
  38. Bit rate                                 : 384 kb/s
  39. Channel(s)                               : 6 channels
  40. Channel layout                           : L R C LFE Ls Rs
  41. Sampling rate                            : 48.0 kHz
  42. Frame rate                               : 31.250 FPS (1536 SPF)
  43. Compression mode                         : Lossy
  44. Stream size                              : 261 MiB (5%)
  45. Language                                 : English
  46. Service kind                             : Complete Main
  47. Default                                  : Yes
  48. Forced                                   : No
  49. Menu
  50. 00:00:00.000                             : en:Chapter 01
  51. 00:09:06.504                             : en:Chapter 02
  52. 00:15:42.359                             : en:Chapter 03
  53. 00:24:43.900                             : en:Chapter 04
  54. 00:32:07.802                             : en:Chapter 05
  55. 00:38:43.323                             : en:Chapter 06
  56. 00:48:36.291                             : en:Chapter 07
  57. 00:57:48.385                             : en:Chapter 08
  58. 01:04:52.642                             : en:Chapter 09
  59. 01:11:43.762                             : en:Chapter 10
  60. 01:20:20.028                             : en:Chapter 11
  61. 01:31:53.513                             : en:Chapter 12
复制代码




                                       
                                       

                                       
                                       
                                       




回复

使用道具 举报

懒得打字嘛,点击右侧快捷回复 【右侧内容,后台自定义】
您需要登录后才可以回帖 登录 | 立即加入

本版积分规则

Archiver|小黑屋| 蓝光电影网 |网站地图

Copyright © 2021 Comsenz Inc. Powered by 蓝光电影网

蓝光电影网

本站内容由用户自主分享和转载自互联网,转载目的在于传递更多信息,并不代表本网赞同其观点和对其真实性负责。

如有侵权、违反国家法律政策行为,请联系我们,我们会第一时间及时清除和处理!

举报反馈邮箱:[email protected]

快速回复 返回顶部 返回列表