找回密码

蓝光电影网

查看: 13|回复: 0

[剧情] 炼狱机器 The.Infernal.Machine.2022.1080p.WEBRip.DD5.1.x264-CM 5.50GB

[复制链接]
蓝光币
953
发表于 前天 18:06 | 显示全部楼层 |阅读模式
[img][/img]

◎标  题 炼狱机械
◎片  名 The Infernal Machine
◎年  代 2022
◎产  地 美国 / 英国
◎类  别 剧情 / 悬疑 / 惊悚 / 可骇
◎语  言 英语
◎上映日期 2022-09-23(美国)
◎IMDb链接 https://www.imdb.com/title/tt15275256/
◎豆瓣链接 https://movie.douban.com/subject/36006701/
◎导  演 安德鲁·亨特 Andrew Hunt
◎编  剧 安德鲁·亨特 Andrew Hunt
◎演  员 爱丽丝·伊芙 Alice Eve
       盖·皮尔斯 Guy Pearce
       亚历克斯·帕蒂弗 Alex Pettyfer
       艾瑞斯·卡亚特 Iris Cayatte
       安娜洛佩斯 Ana Lopes
       乔治娅·古德曼 Georgia Goodman
       艾薇儿·拉维尼 Avril Lavigne
       凯特·卡普肖 Kate Capshaw
◎简  介

  隐居且有争议的作家布鲁斯·科伯恩(BruceCogburn)被一位痴迷的粉丝从隐藏中拉了出来,迫使这位小说家面临他以为可以逃离的曩昔,并诠释他畅销书几十年前激发的事务。科伯恩寻觅谁是他所遭受的操纵和精神熬煎的幕后黑手,致使了一场布满恐惧和危险的感情过山车之旅,在那边,工作并不总是像概况上那样清楚,曩昔的行为能够会发生可怕的结果。
  1. Video
  2. ID                                       : 1
  3. Format                                   : AVC
  4. Format/Info                              : Advanced Video Codec
  5. Format profile                           : [email protected]
  6. Format settings                          : CABAC / 5 Ref Frames
  7. Format settings, CABAC                   : Yes
  8. Format settings, Reference frames        : 5 frames
  9. Codec ID                                 : V_MPEG4/ISO/AVC
  10. Duration                                 : 1 h 51 min
  11. Bit rate                                 : 6 702 kb/s
  12. Width                                    : 1 916 pixels
  13. Height                                   : 796 pixels
  14. Display aspect ratio                     : 2.40:1
  15. Frame rate mode                          : Constant
  16. Frame rate                               : 23.976 (24000/1001/189150) FPS
  17. Color space                              : YUV
  18. Chroma subsampling                       : 4:2:0
  19. Bit depth                                : 8 bits
  20. Scan type                                : Progressive
  21. Bits/(Pixel*Frame)                       : 0.183
  22. Stream size                              : 5.20 GiB (95%)
  23. Language                                 : English
  24. Default                                  : Yes
  25. Forced                                   : No
  26. Color range                              : Limited
  27. Color primaries                          : BT.709
  28. Transfer characteristics                 : BT.709
  29. Matrix coefficients                      : BT.709
  30. Audio
  31. ID                                       : 2
  32. Format                                   : AC-3
  33. Format/Info                              : Audio Coding 3
  34. Commercial name                          : Dolby Digital
  35. Codec ID                                 : A_AC3
  36. Duration                                 : 1 h 51 min
  37. Bit rate mode                            : Constant
  38. Bit rate                                 : 384 kb/s
  39. Channel(s)                               : 6 channels
  40. Channel layout                           : L R C LFE Ls Rs
  41. Sampling rate                            : 48.0 kHz
  42. Frame rate                               : 31.250 FPS (1536 SPF)
  43. Compression mode                         : Lossy
  44. Stream size                              : 305 MiB (5%)
  45. Language                                 : English
  46. Service kind                             : Complete Main
  47. Default                                  : Yes
  48. Forced                                   : No
  49. Text #1
  50. ID                                       : 3
  51. Format                                   : UTF-8
  52. Codec ID                                 : S_TEXT/UTF8
  53. Codec ID/Info                            : UTF-8 Plain Text
  54. Duration                                 : 1 h 50 min
  55. Bit rate                                 : 58 b/s
  56. Frame rate                               : 0.215 FPS
  57. Count of elements                        : 1424
  58. Stream size                              : 47.1 KiB (0%)
  59. Title                                    : SDH
  60. Language                                 : English
  61. Default                                  : No
  62. Forced                                   : No
  63. Text #2
  64. ID                                       : 4
  65. Format                                   : UTF-8
  66. Codec ID                                 : S_TEXT/UTF8
  67. Codec ID/Info                            : UTF-8 Plain Text
  68. Duration                                 : 1 h 50 min
  69. Bit rate                                 : 49 b/s
  70. Frame rate                               : 0.176 FPS
  71. Count of elements                        : 1169
  72. Stream size                              : 39.9 KiB (0%)
  73. Language                                 : English
  74. Default                                  : No
  75. Forced                                   : No
  76. Menu
  77. 00:00:00.000                             : en:Chapter 01
  78. 00:07:51.137                             : en:Chapter 02
  79. 00:16:40.125                             : en:Chapter 03
  80. 00:22:55.750                             : en:Chapter 04
  81. 00:31:55.081                             : en:Chapter 05
  82. 00:38:27.182                             : en:Chapter 06
  83. 00:47:45.365                             : en:Chapter 07
  84. 00:56:22.632                             : en:Chapter 08
  85. 01:05:37.854                             : en:Chapter 09
  86. 01:11:03.263                             : en:Chapter 10
  87. 01:18:44.099                             : en:Chapter 11
  88. 01:23:27.215                             : en:Chapter 12
  89. 01:29:29.828                             : en:Chapter 13
  90. 01:39:24.756                             : en:Chapter 14
  91. 01:46:17.043                             : en:Chapter 15
复制代码




                                       
                                       

                                       
                                       
                                       




回复

使用道具 举报

懒得打字嘛,点击右侧快捷回复 【右侧内容,后台自定义】
您需要登录后才可以回帖 登录 | 立即加入

本版积分规则

Archiver|小黑屋| 蓝光电影网 |网站地图

Copyright © 2021 Comsenz Inc. Powered by 蓝光电影网

蓝光电影网

本站内容由用户自主分享和转载自互联网,转载目的在于传递更多信息,并不代表本网赞同其观点和对其真实性负责。

如有侵权、违反国家法律政策行为,请联系我们,我们会第一时间及时清除和处理!

举报反馈邮箱:[email protected]

快速回复 返回顶部 返回列表