找回密码

蓝光电影网

查看: 16|回复: 0

[剧情] 雅典娜 ATHENA.2022.FRENCH.1080p.NF.WEBRip.DDP5.1.Atmos.x264-SMURF 2.88GB

[复制链接]
蓝光币
953
发表于 前天 17:57 | 显示全部楼层 |阅读模式
[img][/img]

◎标  题 雅典娜
◎译  名 Moussa / RG03
◎片  名 Athena
◎年  代 2022
◎产  地 法国
◎类  别 剧情 / 行动
◎语  言 法语
◎上映日期 2022-09-02(威尼斯电影节) / 2022-09-09(法国) / 2022-09-23(法国收集)
◎IMDb评分 7/10 (151人评价)
◎IMDb链接 https://www.imdb.com/title/tt15445056/
◎豆瓣链接 https://movie.douban.com/subject/35614410/
◎片  长 99分钟
◎导  演 罗曼·加夫拉斯 Romain Gavras
◎编  剧 罗曼·加夫拉斯 Romain Gavras
       拉吉·利 Ladj Ly
       埃里亚斯·贝尔克达尔 Elias Belkeddar
◎演  员 达利·本萨拉赫 Dali Benssalah
       安东尼·巴容 Anthony Bajon
       瓦萨尼·恩巴雷克 Ouassini Embarek
       亚历克西斯·曼蒂 Alexis Manenti
       Karim Lasmi Karim Lasmi
◎简  介

  After the death of his youngest brother following an alleged police altercation, Abdel (Dali Benssalah) is called back from the frontline to find his family torn apart. Caught between his younger brother Karim's (Sami Slimane) desire for revenge and the criminal dealings of his older brother Moktar (Ouassini Embarek), he struggles to calm the rising tensions. As the situation e...
  1. Video
  2. ID                                       : 1
  3. Format                                   : AVC
  4. Format/Info                              : Advanced Video Codec
  5. Format profile                           : [email protected]
  6. Format settings                          : CABAC / 3 Ref Frames
  7. Format settings, CABAC                   : Yes
  8. Format settings, Reference frames        : 3 frames
  9. Codec ID                                 : V_MPEG4/ISO/AVC
  10. Duration                                 : 1 h 39 min
  11. Bit rate mode                            : Variable
  12. Bit rate                                 : 2 606 kb/s
  13. Nominal bit rate                         : 1 576 kb/s
  14. Maximum bit rate                         : 6 330 kb/s
  15. Width                                    : 1 920 pixels
  16. Height                                   : 1 080 pixels
  17. Display aspect ratio                     : 16:9
  18. Frame rate mode                          : Constant
  19. Frame rate                               : 24.000 FPS
  20. Color space                              : YUV
  21. Chroma subsampling                       : 4:2:0
  22. Bit depth                                : 8 bits
  23. Scan type                                : Progressive
  24. Bits/(Pixel*Frame)                       : 0.052
  25. Stream size                              : 1.81 GiB (63%)
  26. Writing library                          : x264 core 148 r2727 7d026e8
  27. Encoding settings                        : cabac=1 / ref=3 / deblock=1:0:0 / analyse=0x1:0x111 / me=umh / subme=10 / psy=1 / psy_rd=1.00:0.00 / mixed_ref=1 / me_range=24 / chroma_me=1 / trellis=2 / 8x8dct=0 / cqm=0 / deadzone=21,11 / fast_pskip=1 / chroma_qp_offset=-2 / threads=8 / lookahead_threads=1 / sliced_threads=0 / nr=0 / decimate=1 / interlaced=0 / bluray_compat=0 / stitchable=1 / constrained_intra=0 / bframes=2 / b_pyramid=0 / b_adapt=2 / b_bias=0 / direct=3 / weightb=1 / open_gop=0 / weightp=2 / keyint=250 / keyint_min=24 / scenecut=0 / intra_refresh=0 / rc_lookahead=48 / rc=2pass / mbtree=1 / bitrate=1576 / ratetol=1.0 / qcomp=0.50 / qpmin=6 / qpmax=51 / qpstep=4 / cplxblur=20.0 / qblur=0.5 / vbv_maxrate=6330 / vbv_bufsize=8440 / nal_hrd=vbr / filler=0 / ip_ratio=1.40 / aq=1:1.00
  28. Language                                 : French
  29. Default                                  : Yes
  30. Forced                                   : No
  31. Audio #1
  32. ID                                       : 2
  33. Format                                   : E-AC-3 JOC
  34. Format/Info                              : Enhanced AC-3 with Joint Object Coding
  35. Commercial name                          : Dolby Digital Plus with Dolby Atmos
  36. Codec ID                                 : A_EAC3
  37. Duration                                 : 1 h 39 min
  38. Bit rate mode                            : Constant
  39. Bit rate                                 : 768 kb/s
  40. Channel(s)                               : 6 channels
  41. Channel layout                           : L R C LFE Ls Rs
  42. Sampling rate                            : 48.0 kHz
  43. Frame rate                               : 31.250 FPS (1536 SPF)
  44. Compression mode                         : Lossy
  45. Stream size                              : 547 MiB (19%)
  46. Language                                 : French
  47. Service kind                             : Complete Main
  48. Default                                  : Yes
  49. Forced                                   : No
  50. Complexity index                         : 16
  51. Number of dynamic objects                : 15
  52. Bed channel count                        : 1 channel
  53. Bed channel configuration                : LFE
  54. Audio #2
  55. ID                                       : 3
  56. Format                                   : E-AC-3 JOC
  57. Format/Info                              : Enhanced AC-3 with Joint Object Coding
  58. Commercial name                          : Dolby Digital Plus with Dolby Atmos
  59. Codec ID                                 : A_EAC3
  60. Duration                                 : 1 h 39 min
  61. Bit rate mode                            : Constant
  62. Bit rate                                 : 768 kb/s
  63. Channel(s)                               : 6 channels
  64. Channel layout                           : L R C LFE Ls Rs
  65. Sampling rate                            : 48.0 kHz
  66. Frame rate                               : 31.250 FPS (1536 SPF)
  67. Compression mode                         : Lossy
  68. Stream size                              : 547 MiB (19%)
  69. Title                                    : British
  70. Language                                 : English
  71. Service kind                             : Complete Main
  72. Default                                  : No
  73. Forced                                   : No
  74. Complexity index                         : 16
  75. Number of dynamic objects                : 15
  76. Bed channel count                        : 1 channel
  77. Bed channel configuration                : LFE
  78. Text #1
  79. ID                                       : 4
  80. Format                                   : UTF-8
  81. Codec ID                                 : S_TEXT/UTF8
  82. Codec ID/Info                            : UTF-8 Plain Text
  83. Duration                                 : 1 h 24 min
  84. Bit rate                                 : 53 b/s
  85. Frame rate                               : 0.207 FPS
  86. Count of elements                        : 1050
  87. Stream size                              : 33.1 KiB (0%)
  88. Language                                 : French
  89. Default                                  : No
  90. Forced                                   : No
  91. Text #2
  92. ID                                       : 5
  93. Format                                   : UTF-8
  94. Codec ID                                 : S_TEXT/UTF8
  95. Codec ID/Info                            : UTF-8 Plain Text
  96. Duration                                 : 1 h 30 min
  97. Bit rate                                 : 65 b/s
  98. Frame rate                               : 0.241 FPS
  99. Count of elements                        : 1313
  100. Stream size                              : 43.5 KiB (0%)
  101. Title                                    : SDH
  102. Language                                 : French
  103. Default                                  : No
  104. Forced                                   : No
  105. Text #3
  106. ID                                       : 6
  107. Format                                   : UTF-8
  108. Codec ID                                 : S_TEXT/UTF8
  109. Codec ID/Info                            : UTF-8 Plain Text
  110. Duration                                 : 1 h 24 min
  111. Bit rate                                 : 0 b/s
  112. Frame rate                               : 0.001 FPS
  113. Count of elements                        : 6
  114. Stream size                              : 141 Bytes (0%)
  115. Title                                    : British (Forced)
  116. Language                                 : English
  117. Default                                  : No
  118. Forced                                   : Yes
  119. Text #4
  120. ID                                       : 7
  121. Format                                   : UTF-8
  122. Codec ID                                 : S_TEXT/UTF8
  123. Codec ID/Info                            : UTF-8 Plain Text
  124. Duration                                 : 1 h 35 min
  125. Bit rate                                 : 26 b/s
  126. Frame rate                               : 0.116 FPS
  127. Count of elements                        : 667
  128. Stream size                              : 18.4 KiB (0%)
  129. Title                                    : British
  130. Language                                 : English
  131. Default                                  : No
  132. Forced                                   : No
  133. Text #5
  134. ID                                       : 8
  135. Format                                   : UTF-8
  136. Codec ID                                 : S_TEXT/UTF8
  137. Codec ID/Info                            : UTF-8 Plain Text
  138. Duration                                 : 1 h 31 min
  139. Bit rate                                 : 71 b/s
  140. Frame rate                               : 0.241 FPS
  141. Count of elements                        : 1326
  142. Stream size                              : 48.2 KiB (0%)
  143. Title                                    : British (SDH)
  144. Language                                 : English
  145. Default                                  : No
  146. Forced                                   : No
  147. Text #6
  148. ID                                       : 9
  149. Format                                   : UTF-8
  150. Codec ID                                 : S_TEXT/UTF8
  151. Codec ID/Info                            : UTF-8 Plain Text
  152. Duration                                 : 1 h 36 min
  153. Bit rate                                 : 49 b/s
  154. Frame rate                               : 0.121 FPS
  155. Count of elements                        : 704
  156. Stream size                              : 35.3 KiB (0%)
  157. Language                                 : Arabic
  158. Default                                  : No
  159. Forced                                   : No
  160. Text #7
  161. ID                                       : 10
  162. Format                                   : UTF-8
  163. Codec ID                                 : S_TEXT/UTF8
  164. Codec ID/Info                            : UTF-8 Plain Text
  165. Duration                                 : 1 h 37 min
  166. Bit rate                                 : 30 b/s
  167. Frame rate                               : 0.122 FPS
  168. Count of elements                        : 712
  169. Stream size                              : 21.8 KiB (0%)
  170. Language                                 : Catalan
  171. Default                                  : No
  172. Forced                                   : No
  173. Text #8
  174. ID                                       : 11
  175. Format                                   : UTF-8
  176. Codec ID                                 : S_TEXT/UTF8
  177. Codec ID/Info                            : UTF-8 Plain Text
  178. Duration                                 : 1 h 36 min
  179. Bit rate                                 : 28 b/s
  180. Frame rate                               : 0.116 FPS
  181. Count of elements                        : 676
  182. Stream size                              : 20.5 KiB (0%)
  183. Language                                 : Czech
  184. Default                                  : No
  185. Forced                                   : No
  186. Text #9
  187. ID                                       : 12
  188. Format                                   : UTF-8
  189. Codec ID                                 : S_TEXT/UTF8
  190. Codec ID/Info                            : UTF-8 Plain Text
  191. Duration                                 : 1 h 36 min
  192. Bit rate                                 : 26 b/s
  193. Frame rate                               : 0.113 FPS
  194. Count of elements                        : 659
  195. Stream size                              : 19.1 KiB (0%)
  196. Language                                 : Danish
  197. Default                                  : No
  198. Forced                                   : No
  199. Text #10
  200. ID                                       : 13
  201. Format                                   : UTF-8
  202. Codec ID                                 : S_TEXT/UTF8
  203. Codec ID/Info                            : UTF-8 Plain Text
  204. Duration                                 : 1 h 36 min
  205. Bit rate                                 : 31 b/s
  206. Frame rate                               : 0.114 FPS
  207. Count of elements                        : 665
  208. Stream size                              : 22.3 KiB (0%)
  209. Language                                 : German
  210. Default                                  : No
  211. Forced                                   : No
  212. Text #11
  213. ID                                       : 14
  214. Format                                   : UTF-8
  215. Codec ID                                 : S_TEXT/UTF8
  216. Codec ID/Info                            : UTF-8 Plain Text
  217. Duration                                 : 1 h 31 min
  218. Bit rate                                 : 47 b/s
  219. Frame rate                               : 0.166 FPS
  220. Count of elements                        : 915
  221. Stream size                              : 32.0 KiB (0%)
  222. Language                                 : German
  223. Default                                  : No
  224. Forced                                   : No
  225. Text #12
  226. ID                                       : 15
  227. Format                                   : UTF-8
  228. Codec ID                                 : S_TEXT/UTF8
  229. Codec ID/Info                            : UTF-8 Plain Text
  230. Duration                                 : 1 h 31 min
  231. Bit rate                                 : 60 b/s
  232. Frame rate                               : 0.225 FPS
  233. Count of elements                        : 1237
  234. Stream size                              : 41.0 KiB (0%)
  235. Title                                    : SDH
  236. Language                                 : German
  237. Default                                  : No
  238. Forced                                   : No
  239. Text #13
  240. ID                                       : 16
  241. Format                                   : UTF-8
  242. Codec ID                                 : S_TEXT/UTF8
  243. Codec ID/Info                            : UTF-8 Plain Text
  244. Duration                                 : 1 h 36 min
  245. Bit rate                                 : 49 b/s
  246. Frame rate                               : 0.125 FPS
  247. Count of elements                        : 728
  248. Stream size                              : 35.0 KiB (0%)
  249. Language                                 : Greek
  250. Default                                  : No
  251. Forced                                   : No
  252. Text #14
  253. ID                                       : 17
  254. Format                                   : UTF-8
  255. Codec ID                                 : S_TEXT/UTF8
  256. Codec ID/Info                            : UTF-8 Plain Text
  257. Duration                                 : 1 h 30 min
  258. Bit rate                                 : 55 b/s
  259. Frame rate                               : 0.198 FPS
  260. Count of elements                        : 1076
  261. Stream size                              : 36.9 KiB (0%)
  262. Language                                 : Spanish
  263. Default                                  : No
  264. Forced                                   : No
  265. Text #15
  266. ID                                       : 18
  267. Format                                   : UTF-8
  268. Codec ID                                 : S_TEXT/UTF8
  269. Codec ID/Info                            : UTF-8 Plain Text
  270. Duration                                 : 1 h 36 min
  271. Bit rate                                 : 29 b/s
  272. Frame rate                               : 0.116 FPS
  273. Count of elements                        : 675
  274. Stream size                              : 20.7 KiB (0%)
  275. Language                                 : Spanish
  276. Default                                  : No
  277. Forced                                   : No
  278. Text #16
  279. ID                                       : 19
  280. Format                                   : UTF-8
  281. Codec ID                                 : S_TEXT/UTF8
  282. Codec ID/Info                            : UTF-8 Plain Text
  283. Duration                                 : 1 h 37 min
  284. Bit rate                                 : 34 b/s
  285. Frame rate                               : 0.125 FPS
  286. Count of elements                        : 727
  287. Stream size                              : 24.7 KiB (0%)
  288. Title                                    : European
  289. Language                                 : Spanish
  290. Default                                  : No
  291. Forced                                   : No
  292. Text #17
  293. ID                                       : 20
  294. Format                                   : UTF-8
  295. Codec ID                                 : S_TEXT/UTF8
  296. Codec ID/Info                            : UTF-8 Plain Text
  297. Duration                                 : 1 h 31 min
  298. Bit rate                                 : 72 b/s
  299. Frame rate                               : 0.261 FPS
  300. Count of elements                        : 1437
  301. Stream size                              : 49.0 KiB (0%)
  302. Title                                    : SDH
  303. Language                                 : Spanish
  304. Default                                  : No
  305. Forced                                   : No
  306. Text #18
  307. ID                                       : 21
  308. Format                                   : UTF-8
  309. Codec ID                                 : S_TEXT/UTF8
  310. Codec ID/Info                            : UTF-8 Plain Text
  311. Duration                                 : 1 h 36 min
  312. Bit rate                                 : 28 b/s
  313. Frame rate                               : 0.115 FPS
  314. Count of elements                        : 672
  315. Stream size                              : 19.9 KiB (0%)
  316. Language                                 : Basque
  317. Default                                  : No
  318. Forced                                   : No
  319. Text #19
  320. ID                                       : 22
  321. Format                                   : UTF-8
  322. Codec ID                                 : S_TEXT/UTF8
  323. Codec ID/Info                            : UTF-8 Plain Text
  324. Duration                                 : 1 h 36 min
  325. Bit rate                                 : 28 b/s
  326. Frame rate                               : 0.107 FPS
  327. Count of elements                        : 622
  328. Stream size                              : 20.5 KiB (0%)
  329. Language                                 : Finnish
  330. Default                                  : No
  331. Forced                                   : No
  332. Text #20
  333. ID                                       : 23
  334. Format                                   : UTF-8
  335. Codec ID                                 : S_TEXT/UTF8
  336. Codec ID/Info                            : UTF-8 Plain Text
  337. Duration                                 : 1 h 36 min
  338. Bit rate                                 : 31 b/s
  339. Frame rate                               : 0.115 FPS
  340. Count of elements                        : 667
  341. Stream size                              : 22.2 KiB (0%)
  342. Language                                 : fil
  343. Default                                  : No
  344. Forced                                   : No
  345. Text #21
  346. ID                                       : 24
  347. Format                                   : UTF-8
  348. Codec ID                                 : S_TEXT/UTF8
  349. Codec ID/Info                            : UTF-8 Plain Text
  350. Duration                                 : 1 h 36 min
  351. Bit rate                                 : 30 b/s
  352. Frame rate                               : 0.119 FPS
  353. Count of elements                        : 693
  354. Stream size                              : 21.4 KiB (0%)
  355. Language                                 : Galician
  356. Default                                  : No
  357. Forced                                   : No
  358. Text #22
  359. ID                                       : 25
  360. Format                                   : UTF-8
  361. Codec ID                                 : S_TEXT/UTF8
  362. Codec ID/Info                            : UTF-8 Plain Text
  363. Duration                                 : 1 h 36 min
  364. Bit rate                                 : 46 b/s
  365. Frame rate                               : 0.116 FPS
  366. Count of elements                        : 677
  367. Stream size                              : 32.7 KiB (0%)
  368. Language                                 : Hebrew
  369. Default                                  : No
  370. Forced                                   : No
  371. Text #23
  372. ID                                       : 26
  373. Format                                   : UTF-8
  374. Codec ID                                 : S_TEXT/UTF8
  375. Codec ID/Info                            : UTF-8 Plain Text
  376. Duration                                 : 1 h 36 min
  377. Bit rate                                 : 25 b/s
  378. Frame rate                               : 0.116 FPS
  379. Count of elements                        : 675
  380. Stream size                              : 18.3 KiB (0%)
  381. Language                                 : Croatian
  382. Default                                  : No
  383. Forced                                   : No
  384. Text #24
  385. ID                                       : 27
  386. Format                                   : UTF-8
  387. Codec ID                                 : S_TEXT/UTF8
  388. Codec ID/Info                            : UTF-8 Plain Text
  389. Duration                                 : 1 h 36 min
  390. Bit rate                                 : 29 b/s
  391. Frame rate                               : 0.113 FPS
  392. Count of elements                        : 657
  393. Stream size                              : 20.7 KiB (0%)
  394. Language                                 : Hungarian
  395. Default                                  : No
  396. Forced                                   : No
  397. Text #25
  398. ID                                       : 28
  399. Format                                   : UTF-8
  400. Codec ID                                 : S_TEXT/UTF8
  401. Codec ID/Info                            : UTF-8 Plain Text
  402. Duration                                 : 1 h 36 min
  403. Bit rate                                 : 28 b/s
  404. Frame rate                               : 0.115 FPS
  405. Count of elements                        : 671
  406. Stream size                              : 20.3 KiB (0%)
  407. Language                                 : Indonesian
  408. Default                                  : No
  409. Forced                                   : No
  410. Text #26
  411. ID                                       : 29
  412. Format                                   : UTF-8
  413. Codec ID                                 : S_TEXT/UTF8
  414. Codec ID/Info                            : UTF-8 Plain Text
  415. Duration                                 : 1 h 36 min
  416. Bit rate                                 : 30 b/s
  417. Frame rate                               : 0.120 FPS
  418. Count of elements                        : 701
  419. Stream size                              : 21.6 KiB (0%)
  420. Language                                 : Italian
  421. Default                                  : No
  422. Forced                                   : No
  423. Text #27
  424. ID                                       : 30
  425. Format                                   : UTF-8
  426. Codec ID                                 : S_TEXT/UTF8
  427. Codec ID/Info                            : UTF-8 Plain Text
  428. Duration                                 : 1 h 36 min
  429. Bit rate                                 : 30 b/s
  430. Frame rate                               : 0.132 FPS
  431. Count of elements                        : 768
  432. Stream size                              : 21.4 KiB (0%)
  433. Language                                 : Japanese
  434. Default                                  : No
  435. Forced                                   : No
  436. Text #28
  437. ID                                       : 31
  438. Format                                   : UTF-8
  439. Codec ID                                 : S_TEXT/UTF8
  440. Codec ID/Info                            : UTF-8 Plain Text
  441. Duration                                 : 1 h 36 min
  442. Bit rate                                 : 36 b/s
  443. Frame rate                               : 0.115 FPS
  444. Count of elements                        : 672
  445. Stream size                              : 25.7 KiB (0%)
  446. Language                                 : Korean
  447. Default                                  : No
  448. Forced                                   : No
  449. Text #29
  450. ID                                       : 32
  451. Format                                   : UTF-8
  452. Codec ID                                 : S_TEXT/UTF8
  453. Codec ID/Info                            : UTF-8 Plain Text
  454. Duration                                 : 1 h 36 min
  455. Bit rate                                 : 29 b/s
  456. Frame rate                               : 0.120 FPS
  457. Count of elements                        : 701
  458. Stream size                              : 20.7 KiB (0%)
  459. Language                                 : Malay
  460. Default                                  : No
  461. Forced                                   : No
  462. Text #30
  463. ID                                       : 33
  464. Format                                   : UTF-8
  465. Codec ID                                 : S_TEXT/UTF8
  466. Codec ID/Info                            : UTF-8 Plain Text
  467. Duration                                 : 1 h 36 min
  468. Bit rate                                 : 25 b/s
  469. Frame rate                               : 0.113 FPS
  470. Count of elements                        : 659
  471. Stream size                              : 18.4 KiB (0%)
  472. Language                                 : Norwegian Bokmal
  473. Default                                  : No
  474. Forced                                   : No
  475. Text #31
  476. ID                                       : 34
  477. Format                                   : UTF-8
  478. Codec ID                                 : S_TEXT/UTF8
  479. Codec ID/Info                            : UTF-8 Plain Text
  480. Duration                                 : 1 h 36 min
  481. Bit rate                                 : 27 b/s
  482. Frame rate                               : 0.115 FPS
  483. Count of elements                        : 667
  484. Stream size                              : 19.9 KiB (0%)
  485. Language                                 : Dutch
  486. Default                                  : No
  487. Forced                                   : No
  488. Text #32
  489. ID                                       : 35
  490. Format                                   : UTF-8
  491. Codec ID                                 : S_TEXT/UTF8
  492. Codec ID/Info                            : UTF-8 Plain Text
  493. Duration                                 : 1 h 36 min
  494. Bit rate                                 : 26 b/s
  495. Frame rate                               : 0.116 FPS
  496. Count of elements                        : 674
  497. Stream size                              : 19.0 KiB (0%)
  498. Language                                 : Polish
  499. Default                                  : No
  500. Forced                                   : No
  501. Text #33
  502. ID                                       : 36
  503. Format                                   : UTF-8
  504. Codec ID                                 : S_TEXT/UTF8
  505. Codec ID/Info                            : UTF-8 Plain Text
  506. Duration                                 : 1 h 36 min
  507. Bit rate                                 : 29 b/s
  508. Frame rate                               : 0.114 FPS
  509. Count of elements                        : 663
  510. Stream size                              : 20.9 KiB (0%)
  511. Language                                 : Portuguese
  512. Default                                  : No
  513. Forced                                   : No
  514. Text #34
  515. ID                                       : 37
  516. Format                                   : UTF-8
  517. Codec ID                                 : S_TEXT/UTF8
  518. Codec ID/Info                            : UTF-8 Plain Text
  519. Duration                                 : 1 h 31 min
  520. Bit rate                                 : 50 b/s
  521. Frame rate                               : 0.180 FPS
  522. Count of elements                        : 991
  523. Stream size                              : 34.1 KiB (0%)
  524. Title                                    : Brazilian
  525. Language                                 : Portuguese
  526. Default                                  : No
  527. Forced                                   : No
  528. Text #35
  529. ID                                       : 38
  530. Format                                   : UTF-8
  531. Codec ID                                 : S_TEXT/UTF8
  532. Codec ID/Info                            : UTF-8 Plain Text
  533. Duration                                 : 1 h 36 min
  534. Bit rate                                 : 29 b/s
  535. Frame rate                               : 0.116 FPS
  536. Count of elements                        : 677
  537. Stream size                              : 21.1 KiB (0%)
  538. Title                                    : Brazilian
  539. Language                                 : Portuguese
  540. Default                                  : No
  541. Forced                                   : No
  542. Text #36
  543. ID                                       : 39
  544. Format                                   : UTF-8
  545. Codec ID                                 : S_TEXT/UTF8
  546. Codec ID/Info                            : UTF-8 Plain Text
  547. Duration                                 : 1 h 36 min
  548. Bit rate                                 : 60 b/s
  549. Frame rate                               : 0.212 FPS
  550. Count of elements                        : 1229
  551. Stream size                              : 43.1 KiB (0%)
  552. Title                                    : Brazilian (SDH)
  553. Language                                 : Portuguese
  554. Default                                  : No
  555. Forced                                   : No
  556. Text #37
  557. ID                                       : 40
  558. Format                                   : UTF-8
  559. Codec ID                                 : S_TEXT/UTF8
  560. Codec ID/Info                            : UTF-8 Plain Text
  561. Duration                                 : 1 h 36 min
  562. Bit rate                                 : 32 b/s
  563. Frame rate                               : 0.115 FPS
  564. Count of elements                        : 671
  565. Stream size                              : 22.9 KiB (0%)
  566. Language                                 : Romanian
  567. Default                                  : No
  568. Forced                                   : No
  569. Text #38
  570. ID                                       : 41
  571. Format                                   : UTF-8
  572. Codec ID                                 : S_TEXT/UTF8
  573. Codec ID/Info                            : UTF-8 Plain Text
  574. Duration                                 : 1 h 36 min
  575. Bit rate                                 : 48 b/s
  576. Frame rate                               : 0.123 FPS
  577. Count of elements                        : 717
  578. Stream size                              : 34.4 KiB (0%)
  579. Language                                 : Russian
  580. Default                                  : No
  581. Forced                                   : No
  582. Text #39
  583. ID                                       : 42
  584. Format                                   : UTF-8
  585. Codec ID                                 : S_TEXT/UTF8
  586. Codec ID/Info                            : UTF-8 Plain Text
  587. Duration                                 : 1 h 36 min
  588. Bit rate                                 : 28 b/s
  589. Frame rate                               : 0.112 FPS
  590. Count of elements                        : 653
  591. Stream size                              : 19.9 KiB (0%)
  592. Language                                 : Swedish
  593. Default                                  : No
  594. Forced                                   : No
  595. Text #40
  596. ID                                       : 43
  597. Format                                   : UTF-8
  598. Codec ID                                 : S_TEXT/UTF8
  599. Codec ID/Info                            : UTF-8 Plain Text
  600. Duration                                 : 1 h 36 min
  601. Bit rate                                 : 78 b/s
  602. Frame rate                               : 0.163 FPS
  603. Count of elements                        : 946
  604. Stream size                              : 55.5 KiB (0%)
  605. Language                                 : Thai
  606. Default                                  : No
  607. Forced                                   : No
  608. Text #41
  609. ID                                       : 44
  610. Format                                   : UTF-8
  611. Codec ID                                 : S_TEXT/UTF8
  612. Codec ID/Info                            : UTF-8 Plain Text
  613. Duration                                 : 1 h 36 min
  614. Bit rate                                 : 28 b/s
  615. Frame rate                               : 0.116 FPS
  616. Count of elements                        : 674
  617. Stream size                              : 20.5 KiB (0%)
  618. Language                                 : Turkish
  619. Default                                  : No
  620. Forced                                   : No
  621. Text #42
  622. ID                                       : 45
  623. Format                                   : UTF-8
  624. Codec ID                                 : S_TEXT/UTF8
  625. Codec ID/Info                            : UTF-8 Plain Text
  626. Duration                                 : 1 h 36 min
  627. Bit rate                                 : 46 b/s
  628. Frame rate                               : 0.115 FPS
  629. Count of elements                        : 670
  630. Stream size                              : 33.2 KiB (0%)
  631. Language                                 : Ukrainian
  632. Default                                  : No
  633. Forced                                   : No
  634. Text #43
  635. ID                                       : 46
  636. Format                                   : UTF-8
  637. Codec ID                                 : S_TEXT/UTF8
  638. Codec ID/Info                            : UTF-8 Plain Text
  639. Duration                                 : 1 h 36 min
  640. Bit rate                                 : 40 b/s
  641. Frame rate                               : 0.114 FPS
  642. Count of elements                        : 661
  643. Stream size                              : 28.6 KiB (0%)
  644. Language                                 : Vietnamese
  645. Default                                  : No
  646. Forced                                   : No
  647. Text #44
  648. ID                                       : 47
  649. Format                                   : UTF-8
  650. Codec ID                                 : S_TEXT/UTF8
  651. Codec ID/Info                            : UTF-8 Plain Text
  652. Duration                                 : 1 h 36 min
  653. Bit rate                                 : 32 b/s
  654. Frame rate                               : 0.116 FPS
  655. Count of elements                        : 676
  656. Stream size                              : 22.8 KiB (0%)
  657. Title                                    : Simplified
  658. Language                                 : Chinese
  659. Default                                  : No
  660. Forced                                   : No
  661. Text #45
  662. ID                                       : 48
  663. Format                                   : UTF-8
  664. Codec ID                                 : S_TEXT/UTF8
  665. Codec ID/Info                            : UTF-8 Plain Text
  666. Duration                                 : 1 h 36 min
  667. Bit rate                                 : 28 b/s
  668. Frame rate                               : 0.117 FPS
  669. Count of elements                        : 678
  670. Stream size                              : 20.5 KiB (0%)
  671. Title                                    : Traditional
  672. Language                                 : Chinese
  673. Default                                  : No
  674. Forced                                   : No
复制代码




                                       
                                       

                                       
                                       
                                       




回复

使用道具 举报

懒得打字嘛,点击右侧快捷回复 【右侧内容,后台自定义】
您需要登录后才可以回帖 登录 | 立即加入

本版积分规则

Archiver|小黑屋| 蓝光电影网 |网站地图

Copyright © 2021 Comsenz Inc. Powered by 蓝光电影网

蓝光电影网

本站内容由用户自主分享和转载自互联网,转载目的在于传递更多信息,并不代表本网赞同其观点和对其真实性负责。

如有侵权、违反国家法律政策行为,请联系我们,我们会第一时间及时清除和处理!

举报反馈邮箱:[email protected]

快速回复 返回顶部 返回列表