找回密码

蓝光电影网

查看: 15|回复: 0

[动作] 暗影特工 Section.8.2022.1080p.WEBRip.DD5.1.x264-CM 4.87GB

[复制链接]
蓝光币
953
发表于 前天 18:10 | 显示全部楼层 |阅读模式
[img][/img]

◎标  题 阴影奸细
◎译  名 Section 8
◎片  名 Section Eight
◎年  代 2022
◎产  地 美国
◎类  别 行动 / 犯罪
◎语  言 英语
◎上映日期 2022-09-23(美国)
◎IMDb链接 https://www.imdb.com/title/tt14950412/
◎豆瓣链接 https://movie.douban.com/subject/35737733/
◎片  长 98分钟
◎导  演 克里斯蒂安·塞斯玛 Christian Sesma
◎编  剧 查德·洛 Chad Law
◎演  员 斯科特·阿金斯 Scott Adkins
       瑞恩·柯万腾 Ryan Kwanten
       杜夫·龙格尔 Dolph Lundgren
       米基·洛克 Mickey Rourke
       德蒙特·莫罗尼 Dermot Mulroney
       罗伯特·拉萨多 Robert LaSardo
       保罗·斯隆 Paul Sloan
◎简  介

  一位退役兵士在为遇害的家人复仇后被捕入狱,而在他出狱后获得了奥秘政府部分的招募。
  1. Video
  2. ID                                       : 1
  3. Format                                   : AVC
  4. Format/Info                              : Advanced Video Codec
  5. Format profile                           : [email protected]
  6. Format settings                          : CABAC / 5 Ref Frames
  7. Format settings, CABAC                   : Yes
  8. Format settings, Reference frames        : 5 frames
  9. Codec ID                                 : V_MPEG4/ISO/AVC
  10. Duration                                 : 1 h 38 min
  11. Bit rate                                 : 6 717 kb/s
  12. Width                                    : 1 918 pixels
  13. Height                                   : 796 pixels
  14. Display aspect ratio                     : 2.40:1
  15. Frame rate mode                          : Constant
  16. Frame rate                               : 23.976 (24000/1001/189150) FPS
  17. Color space                              : YUV
  18. Chroma subsampling                       : 4:2:0
  19. Bit depth                                : 8 bits
  20. Scan type                                : Progressive
  21. Bits/(Pixel*Frame)                       : 0.184
  22. Stream size                              : 4.60 GiB (95%)
  23. Language                                 : English
  24. Default                                  : Yes
  25. Forced                                   : No
  26. Color range                              : Limited
  27. Color primaries                          : BT.709
  28. Transfer characteristics                 : BT.709
  29. Matrix coefficients                      : BT.709
  30. Audio
  31. ID                                       : 2
  32. Format                                   : AC-3
  33. Format/Info                              : Audio Coding 3
  34. Commercial name                          : Dolby Digital
  35. Codec ID                                 : A_AC3
  36. Duration                                 : 1 h 38 min
  37. Bit rate mode                            : Constant
  38. Bit rate                                 : 384 kb/s
  39. Channel(s)                               : 6 channels
  40. Channel layout                           : L R C LFE Ls Rs
  41. Sampling rate                            : 48.0 kHz
  42. Frame rate                               : 31.250 FPS (1536 SPF)
  43. Compression mode                         : Lossy
  44. Stream size                              : 269 MiB (5%)
  45. Language                                 : English
  46. Service kind                             : Complete Main
  47. Default                                  : Yes
  48. Forced                                   : No
  49. Text #1
  50. ID                                       : 3
  51. Format                                   : UTF-8
  52. Codec ID                                 : S_TEXT/UTF8
  53. Codec ID/Info                            : UTF-8 Plain Text
  54. Duration                                 : 1 h 35 min
  55. Bit rate                                 : 53 b/s
  56. Frame rate                               : 0.235 FPS
  57. Count of elements                        : 1353
  58. Stream size                              : 37.8 KiB (0%)
  59. Title                                    : SDH
  60. Language                                 : English
  61. Default                                  : No
  62. Forced                                   : No
  63. Text #2
  64. ID                                       : 4
  65. Format                                   : UTF-8
  66. Codec ID                                 : S_TEXT/UTF8
  67. Codec ID/Info                            : UTF-8 Plain Text
  68. Duration                                 : 1 h 34 min
  69. Bit rate                                 : 50 b/s
  70. Frame rate                               : 0.218 FPS
  71. Count of elements                        : 1233
  72. Stream size                              : 34.9 KiB (0%)
  73. Language                                 : English
  74. Default                                  : No
  75. Forced                                   : No
  76. Text #3
  77. ID                                       : 5
  78. Format                                   : UTF-8
  79. Codec ID                                 : S_TEXT/UTF8
  80. Codec ID/Info                            : UTF-8 Plain Text
  81. Duration                                 : 1 h 30 min
  82. Bit rate                                 : 49 b/s
  83. Frame rate                               : 0.214 FPS
  84. Count of elements                        : 1169
  85. Stream size                              : 32.9 KiB (0%)
  86. Title                                    : Latin American
  87. Language                                 : Spanish
  88. Default                                  : No
  89. Forced                                   : No
  90. Text #4
  91. ID                                       : 6
  92. Format                                   : UTF-8
  93. Codec ID                                 : S_TEXT/UTF8
  94. Codec ID/Info                            : UTF-8 Plain Text
  95. Duration                                 : 1 h 30 min
  96. Bit rate                                 : 49 b/s
  97. Frame rate                               : 0.208 FPS
  98. Count of elements                        : 1134
  99. Stream size                              : 32.8 KiB (0%)
  100. Language                                 : French
  101. Default                                  : No
  102. Forced                                   : No
  103. Menu
  104. 00:00:00.000                             : en:Chapter 01
  105. 00:10:03.603                             : en:Chapter 02
  106. 00:19:59.783                             : en:Chapter 03
  107. 00:29:43.783                             : en:Chapter 04
  108. 00:42:57.786                             : en:Chapter 05
  109. 00:51:15.950                             : en:Chapter 06
  110. 00:59:34.324                             : en:Chapter 07
  111. 01:10:11.211                             : en:Chapter 08
  112. 01:21:33.018                             : en:Chapter 09
  113. 01:31:49.926                             : en:Chapter 10
复制代码




                                       
                                       

                                       
                                       
                                       




回复

使用道具 举报

懒得打字嘛,点击右侧快捷回复 【右侧内容,后台自定义】
您需要登录后才可以回帖 登录 | 立即加入

本版积分规则

Archiver|小黑屋| 蓝光电影网 |网站地图

Copyright © 2021 Comsenz Inc. Powered by 蓝光电影网

蓝光电影网

本站内容由用户自主分享和转载自互联网,转载目的在于传递更多信息,并不代表本网赞同其观点和对其真实性负责。

如有侵权、违反国家法律政策行为,请联系我们,我们会第一时间及时清除和处理!

举报反馈邮箱:[email protected]

快速回复 返回顶部 返回列表