找回密码

蓝光电影网

查看: 25|回复: 0

[惊悚] 执法者 The.Enforcer.2022.1080p.WEBRip.DD5.1.x264-CM 4.48GB

[复制链接]
蓝光币
975
发表于 2022-9-23 18:08:04 | 显示全部楼层 |阅读模式
[img][/img]

◎标  题 法律者
◎片  名 The Enforcer
◎年  代 2022
◎产  地 美国
◎类  别 惊悚
◎语  言 英语
◎上映日期 2022-09-22(美国)
◎IMDb评分 7/10 (22人评价)
◎IMDb链接 https://www.imdb.com/title/tt14857730/
◎豆瓣链接 https://movie.douban.com/subject/35599332/
◎导  演 李查德·休斯 Richard Hughes
◎编  剧 W·彼得·伊利夫 W. Peter Iliff
◎演  员 安东尼奥·班德拉斯 Antonio Banderas
       凯特·波茨沃斯 Kate Bosworth
       马克·史姑娘 Mark Rhino Smith
       莫让·阿里亚 Mojean Aria
       亚伦·科恩 Aaron Cohen
       Alexis Ren Alexis Ren
◎简  介

  一个法律者不能不牺牲一切来拯救一个年轻的女孩,这个女孩是他从他的女老板那边结识的,她介入了收集性买卖。
  1. Video
  2. ID                                       : 1
  3. Format                                   : AVC
  4. Format/Info                              : Advanced Video Codec
  5. Format profile                           : [email protected]
  6. Format settings                          : CABAC / 5 Ref Frames
  7. Format settings, CABAC                   : Yes
  8. Format settings, Reference frames        : 5 frames
  9. Codec ID                                 : V_MPEG4/ISO/AVC
  10. Duration                                 : 1 h 30 min
  11. Bit rate                                 : 6 692 kb/s
  12. Width                                    : 1 920 pixels
  13. Height                                   : 806 pixels
  14. Display aspect ratio                     : 2.40:1
  15. Frame rate mode                          : Constant
  16. Frame rate                               : 23.976 (24000/1001/189150) FPS
  17. Color space                              : YUV
  18. Chroma subsampling                       : 4:2:0
  19. Bit depth                                : 8 bits
  20. Scan type                                : Progressive
  21. Bits/(Pixel*Frame)                       : 0.180
  22. Stream size                              : 4.24 GiB (95%)
  23. Language                                 : English
  24. Default                                  : Yes
  25. Forced                                   : No
  26. Color range                              : Limited
  27. Color primaries                          : BT.709
  28. Transfer characteristics                 : BT.709
  29. Matrix coefficients                      : BT.709
  30. Audio
  31. ID                                       : 2
  32. Format                                   : AC-3
  33. Format/Info                              : Audio Coding 3
  34. Commercial name                          : Dolby Digital
  35. Codec ID                                 : A_AC3
  36. Duration                                 : 1 h 30 min
  37. Bit rate mode                            : Constant
  38. Bit rate                                 : 384 kb/s
  39. Channel(s)                               : 6 channels
  40. Channel layout                           : L R C LFE Ls Rs
  41. Sampling rate                            : 48.0 kHz
  42. Frame rate                               : 31.250 FPS (1536 SPF)
  43. Compression mode                         : Lossy
  44. Stream size                              : 249 MiB (5%)
  45. Language                                 : English
  46. Service kind                             : Complete Main
  47. Default                                  : Yes
  48. Forced                                   : No
  49. Text #1
  50. ID                                       : 3
  51. Format                                   : UTF-8
  52. Codec ID                                 : S_TEXT/UTF8
  53. Codec ID/Info                            : UTF-8 Plain Text
  54. Duration                                 : 1 h 24 min
  55. Bit rate                                 : 58 b/s
  56. Frame rate                               : 0.273 FPS
  57. Count of elements                        : 1391
  58. Stream size                              : 36.1 KiB (0%)
  59. Title                                    : SDH
  60. Language                                 : English
  61. Default                                  : No
  62. Forced                                   : No
  63. Text #2
  64. ID                                       : 4
  65. Format                                   : UTF-8
  66. Codec ID                                 : S_TEXT/UTF8
  67. Codec ID/Info                            : UTF-8 Plain Text
  68. Duration                                 : 1 h 24 min
  69. Bit rate                                 : 50 b/s
  70. Frame rate                               : 0.220 FPS
  71. Count of elements                        : 1114
  72. Stream size                              : 31.0 KiB (0%)
  73. Language                                 : English
  74. Default                                  : No
  75. Forced                                   : No
  76. Menu
  77. 00:00:00.000                             : en:Chapter 01
  78. 00:05:28.578                             : en:Chapter 02
  79. 00:11:22.015                             : en:Chapter 03
  80. 00:15:29.429                             : en:Chapter 04
  81. 00:20:22.263                             : en:Chapter 05
  82. 00:25:28.862                             : en:Chapter 06
  83. 00:29:52.375                             : en:Chapter 07
  84. 00:36:20.263                             : en:Chapter 08
  85. 00:41:10.387                             : en:Chapter 09
  86. 00:46:31.583                             : en:Chapter 10
  87. 00:51:04.272                             : en:Chapter 11
  88. 00:59:33.365                             : en:Chapter 12
  89. 01:05:02.819                             : en:Chapter 13
  90. 01:10:12.128                             : en:Chapter 14
  91. 01:16:57.242                             : en:Chapter 15
复制代码




                                       
                                       

                                       
                                       
                                       




回复

使用道具 举报

懒得打字嘛,点击右侧快捷回复 【右侧内容,后台自定义】
您需要登录后才可以回帖 登录 | 立即加入

本版积分规则

Archiver|小黑屋| 蓝光电影网 |网站地图

Copyright © 2021 Comsenz Inc. Powered by 蓝光电影网

蓝光电影网

本站内容由用户自主分享和转载自互联网,转载目的在于传递更多信息,并不代表本网赞同其观点和对其真实性负责。

如有侵权、违反国家法律政策行为,请联系我们,我们会第一时间及时清除和处理!

举报反馈邮箱:[email protected]

快速回复 返回顶部 返回列表