找回密码

蓝光电影网

查看: 11|回复: 0

[惊悚] 挖掘 Dig.2022.1080p.WEBRip.DD5.1.x264-CM 6.59GB

[复制链接]
蓝光币
953
发表于 前天 18:11 | 显示全部楼层 |阅读模式
[img][/img]

◎标  题 挖掘
◎译  名 父女危机 / 聋哑父女求生记
◎片  名 Dig
◎年  代 2022
◎产  地 美国
◎类  别 惊悚
◎语  言 英语
◎IMDb链接 https://www.imdb.com/title/tt14830582/
◎豆瓣链接 https://movie.douban.com/subject/35763097/
◎片  长 88分钟
◎简  介

  A father and his daughter, suffering from major hearing loss, arrive at a construction site for work. They are soon taken hostage by a dangerous couple, and must work together to outsmart their captors and survive the night.
  1. Video
  2. ID                                       : 1
  3. Format                                   : AVC
  4. Format/Info                              : Advanced Video Codec
  5. Format profile                           : [email protected]
  6. Format settings                          : CABAC / 5 Ref Frames
  7. Format settings, CABAC                   : Yes
  8. Format settings, Reference frames        : 5 frames
  9. Codec ID                                 : V_MPEG4/ISO/AVC
  10. Duration                                 : 1 h 29 min
  11. Bit rate                                 : 10.1 Mb/s
  12. Width                                    : 1 918 pixels
  13. Height                                   : 800 pixels
  14. Display aspect ratio                     : 2.40:1
  15. Frame rate mode                          : Constant
  16. Frame rate                               : 23.976 (24000/1001/189150) FPS
  17. Color space                              : YUV
  18. Chroma subsampling                       : 4:2:0
  19. Bit depth                                : 8 bits
  20. Scan type                                : Progressive
  21. Bits/(Pixel*Frame)                       : 0.276
  22. Stream size                              : 6.35 GiB (96%)
  23. Language                                 : English
  24. Default                                  : Yes
  25. Forced                                   : No
  26. Color range                              : Limited
  27. Color primaries                          : BT.709
  28. Transfer characteristics                 : BT.709
  29. Matrix coefficients                      : BT.709
  30. Audio
  31. ID                                       : 2
  32. Format                                   : AC-3
  33. Format/Info                              : Audio Coding 3
  34. Commercial name                          : Dolby Digital
  35. Codec ID                                 : A_AC3
  36. Duration                                 : 1 h 29 min
  37. Bit rate mode                            : Constant
  38. Bit rate                                 : 384 kb/s
  39. Channel(s)                               : 6 channels
  40. Channel layout                           : L R C LFE Ls Rs
  41. Sampling rate                            : 48.0 kHz
  42. Frame rate                               : 31.250 FPS (1536 SPF)
  43. Compression mode                         : Lossy
  44. Stream size                              : 246 MiB (4%)
  45. Language                                 : English
  46. Service kind                             : Complete Main
  47. Default                                  : Yes
  48. Forced                                   : No
  49. Text #1
  50. ID                                       : 3
  51. Format                                   : UTF-8
  52. Codec ID                                 : S_TEXT/UTF8
  53. Codec ID/Info                            : UTF-8 Plain Text
  54. Duration                                 : 1 h 26 min
  55. Bit rate                                 : 79 b/s
  56. Frame rate                               : 0.295 FPS
  57. Count of elements                        : 1535
  58. Stream size                              : 50.4 KiB (0%)
  59. Title                                    : SDH
  60. Language                                 : English
  61. Default                                  : No
  62. Forced                                   : No
  63. Text #2
  64. ID                                       : 4
  65. Format                                   : UTF-8
  66. Codec ID                                 : S_TEXT/UTF8
  67. Codec ID/Info                            : UTF-8 Plain Text
  68. Duration                                 : 1 h 26 min
  69. Bit rate                                 : 70 b/s
  70. Frame rate                               : 0.262 FPS
  71. Count of elements                        : 1364
  72. Stream size                              : 44.5 KiB (0%)
  73. Language                                 : English
  74. Default                                  : No
  75. Forced                                   : No
  76. Menu
  77. 00:00:00.000                             : en:Chapter 01
  78. 00:09:12.135                             : en:Chapter 02
  79. 00:25:25.734                             : en:Chapter 03
  80. 00:38:35.982                             : en:Chapter 04
  81. 00:54:05.537                             : en:Chapter 05
  82. 01:10:00.700                             : en:Chapter 06
  83. 01:26:29.022                             : en:Chapter 07
复制代码




                                       
                                       

                                       
                                       
                                       




回复

使用道具 举报

懒得打字嘛,点击右侧快捷回复 【右侧内容,后台自定义】
您需要登录后才可以回帖 登录 | 立即加入

本版积分规则

Archiver|小黑屋| 蓝光电影网 |网站地图

Copyright © 2021 Comsenz Inc. Powered by 蓝光电影网

蓝光电影网

本站内容由用户自主分享和转载自互联网,转载目的在于传递更多信息,并不代表本网赞同其观点和对其真实性负责。

如有侵权、违反国家法律政策行为,请联系我们,我们会第一时间及时清除和处理!

举报反馈邮箱:[email protected]

快速回复 返回顶部 返回列表