找回密码

蓝光电影网

查看: 15|回复: 0

[剧情] 空白 Blank.2022.1080p.WEBRip.DD5.1.x264-CM 4.66GB

[复制链接]
蓝光币
953
发表于 前天 18:13 | 显示全部楼层 |阅读模式
[img][/img]

◎标  题 空缺
◎译  名 智能裂缝 / 失控智能
◎片  名 Blank
◎年  代 2019
◎产  地 英国
◎类  别 剧情 / 科幻 / 惊悚
◎语  言 英语
◎IMDb评分 8/10 (18人评价)
◎IMDb链接 https://www.imdb.com/title/tt8290476/
◎豆瓣链接 https://movie.douban.com/subject/30446376/
◎演  员 蕾切尔·雪莉 Rachel Shelley
       海达·里德 Heida Reed
       韦恩·布莱迪 Wayne Brady
       安妮·库赛尔 Annie Cusselle
       杰米洛玛斯 Jamie Lomas
       巴斯卡尔·帕特尔 Bhasker Patel
◎简  介

  Sci-fi drama “Blank” has wrapped filming and is now in post-production, with a first-look image released of the lead actresses. The movie stars “L Word” and “Deep State” actress Rachel Shelley, and “Poldark’s” Heida Reed. The cast also features U.S. star Wayne Brady, whose credits include “The Bold and the Beautiful,” “Let’s Make a Deal” and “How I Met Your Mother.”                                       
                                    “Blank” see...
  1. Video
  2. ID                                       : 1
  3. Format                                   : AVC
  4. Format/Info                              : Advanced Video Codec
  5. Format profile                           : [email protected]
  6. Format settings                          : CABAC / 5 Ref Frames
  7. Format settings, CABAC                   : Yes
  8. Format settings, Reference frames        : 5 frames
  9. Codec ID                                 : V_MPEG4/ISO/AVC
  10. Duration                                 : 1 h 34 min
  11. Bit rate                                 : 6 657 kb/s
  12. Width                                    : 1 916 pixels
  13. Height                                   : 812 pixels
  14. Display aspect ratio                     : 2.35:1
  15. Frame rate mode                          : Constant
  16. Frame rate                               : 24.000 FPS
  17. Color space                              : YUV
  18. Chroma subsampling                       : 4:2:0
  19. Bit depth                                : 8 bits
  20. Scan type                                : Progressive
  21. Bits/(Pixel*Frame)                       : 0.178
  22. Stream size                              : 4.40 GiB (95%)
  23. Language                                 : English
  24. Default                                  : Yes
  25. Forced                                   : No
  26. Color range                              : Limited
  27. Color primaries                          : BT.709
  28. Transfer characteristics                 : BT.709
  29. Matrix coefficients                      : BT.709
  30. Audio
  31. ID                                       : 2
  32. Format                                   : AC-3
  33. Format/Info                              : Audio Coding 3
  34. Commercial name                          : Dolby Digital
  35. Codec ID                                 : A_AC3
  36. Duration                                 : 1 h 34 min
  37. Bit rate mode                            : Constant
  38. Bit rate                                 : 384 kb/s
  39. Channel(s)                               : 6 channels
  40. Channel layout                           : L R C LFE Ls Rs
  41. Sampling rate                            : 48.0 kHz
  42. Frame rate                               : 31.250 FPS (1536 SPF)
  43. Compression mode                         : Lossy
  44. Stream size                              : 260 MiB (5%)
  45. Language                                 : English
  46. Service kind                             : Complete Main
  47. Default                                  : Yes
  48. Forced                                   : No
  49. Text #1
  50. ID                                       : 3
  51. Format                                   : UTF-8
  52. Codec ID                                 : S_TEXT/UTF8
  53. Codec ID/Info                            : UTF-8 Plain Text
  54. Duration                                 : 1 h 30 min
  55. Bit rate                                 : 36 b/s
  56. Frame rate                               : 0.170 FPS
  57. Count of elements                        : 919
  58. Stream size                              : 24.0 KiB (0%)
  59. Title                                    : SDH
  60. Language                                 : English
  61. Default                                  : No
  62. Forced                                   : No
  63. Text #2
  64. ID                                       : 4
  65. Format                                   : UTF-8
  66. Codec ID                                 : S_TEXT/UTF8
  67. Codec ID/Info                            : UTF-8 Plain Text
  68. Duration                                 : 1 h 26 min
  69. Bit rate                                 : 35 b/s
  70. Frame rate                               : 0.156 FPS
  71. Count of elements                        : 806
  72. Stream size                              : 22.2 KiB (0%)
  73. Language                                 : English
  74. Default                                  : No
  75. Forced                                   : No
  76. Menu
  77. 00:00:00.000                             : en:Chapter 01
  78. 00:23:38.000                             : en:Chapter 02
  79. 00:39:36.000                             : en:Chapter 03
  80. 01:01:45.000                             : en:Chapter 04
  81. 01:19:40.000                             : en:Chapter 05
  82. 01:31:06.000                             : en:Chapter 06
复制代码




                                       
                                       

                                       
                                       
                                       




回复

使用道具 举报

懒得打字嘛,点击右侧快捷回复 【右侧内容,后台自定义】
您需要登录后才可以回帖 登录 | 立即加入

本版积分规则

Archiver|小黑屋| 蓝光电影网 |网站地图

Copyright © 2021 Comsenz Inc. Powered by 蓝光电影网

蓝光电影网

本站内容由用户自主分享和转载自互联网,转载目的在于传递更多信息,并不代表本网赞同其观点和对其真实性负责。

如有侵权、违反国家法律政策行为,请联系我们,我们会第一时间及时清除和处理!

举报反馈邮箱:[email protected]

快速回复 返回顶部 返回列表