找回密码

蓝光电影网

查看: 39|回复: 0

[其他] 拦路贼 The.Highwayman.2022.1080p.WEB.H264-DiMEPiECE 5.80GB

[复制链接]
蓝光币
1020
发表于 2022-9-24 16:48:50 | 显示全部楼层 |阅读模式
[img][/img]

◎标  题 拦路贼
◎片  名 The Highwayman
◎年  代 2022
◎产  地 英国
◎类  别 冒险
◎语  言 英语
◎IMDb评分 3.3/10 (57人评价)
◎IMDb链接 https://www.imdb.com/title/tt17686944/
◎豆瓣链接 https://movie.douban.com/subject/35896945/
◎演  员 弗朗西斯卡·露易丝·怀特 Francesca Louise White
◎简  介

  Famed highway robber Dick Turpin finds himself on the run in the English countryside having accidentally kidnapped the Earl of Pembroke's feisty daughter, Elizabeth. As her fiance Winthroppe attempts to track them down, Elizabeth begins to fall for the dashing highwayman, leaving Turpin with no choice but to face off against Winthroppe in a fight for Elizabeth's heart - and her...
  1. Video
  2. ID                                       : 1
  3. Format                                   : AVC
  4. Format/Info                              : Advanced Video Codec
  5. Format profile                           : [email protected]
  6. Format settings                          : CABAC / 4 Ref Frames
  7. Format settings, CABAC                   : Yes
  8. Format settings, Reference frames        : 4 frames
  9. Codec ID                                 : V_MPEG4/ISO/AVC
  10. Duration                                 : 1 h 25 min
  11. Bit rate mode                            : Constant
  12. Bit rate                                 : 9 110 kb/s
  13. Nominal bit rate                         : 10 000 kb/s
  14. Width                                    : 1 920 pixels
  15. Height                                   : 816 pixels
  16. Display aspect ratio                     : 2.35:1
  17. Frame rate mode                          : Constant
  18. Frame rate                               : 23.976 (24000/1001/189150) FPS
  19. Color space                              : YUV
  20. Chroma subsampling                       : 4:2:0
  21. Bit depth                                : 8 bits
  22. Scan type                                : Progressive
  23. Bits/(Pixel*Frame)                       : 0.243
  24. Stream size                              : 5.42 GiB (93%)
  25. Language                                 : English
  26. Default                                  : Yes
  27. Forced                                   : No
  28. Color range                              : Limited
  29. Color primaries                          : BT.709
  30. Transfer characteristics                 : BT.709
  31. Matrix coefficients                      : BT.709

  32. Audio
  33. ID                                       : 2
  34. Format                                   : E-AC-3
  35. Format/Info                              : Enhanced AC-3
  36. Commercial name                          : Dolby Digital Plus
  37. Codec ID                                 : A_EAC3
  38. Duration                                 : 1 h 25 min
  39. Bit rate mode                            : Constant
  40. Bit rate                                 : 640 kb/s
  41. Channel(s)                               : 6 channels
  42. Channel layout                           : L R C LFE Ls Rs
  43. Sampling rate                            : 48.0 kHz
  44. Frame rate                               : 31.250 FPS (1536 SPF)
  45. Compression mode                         : Lossy
  46. Stream size                              : 390 MiB (7%)
  47. Title                                    : English
  48. Language                                 : English
  49. Service kind                             : Complete Main
  50. Default                                  : Yes
  51. Forced                                   : No

  52. Text
  53. ID                                       : 3
  54. Format                                   : UTF-8
  55. Codec ID                                 : S_TEXT/UTF8
  56. Codec ID/Info                            : UTF-8 Plain Text
  57. Duration                                 : 1 h 23 min
  58. Bit rate                                 : 84 b/s
  59. Count of elements                        : 1435
  60. Stream size                              : 52.0 KiB (0%)
  61. Title                                    : English
  62. Language                                 : English
  63. Default                                  : No
  64. Forced                                   : No
复制代码




                                       
                                       

                                       
                                       
                                       




回复

使用道具 举报

懒得打字嘛,点击右侧快捷回复 【右侧内容,后台自定义】
您需要登录后才可以回帖 登录 | 立即加入

本版积分规则

Archiver|小黑屋| 蓝光电影网 |网站地图

Copyright © 2021 Comsenz Inc. Powered by 蓝光电影网

蓝光电影网

本站内容由用户自主分享和转载自互联网,转载目的在于传递更多信息,并不代表本网赞同其观点和对其真实性负责。

如有侵权、违反国家法律政策行为,请联系我们,我们会第一时间及时清除和处理!

举报反馈邮箱:[email protected]

快速回复 返回顶部 返回列表