找回密码

蓝光电影网

查看: 1533|回复: 48

雷神4:爱与雷霆 Thor.Love.and.Thunder.2022.1080p.3D.BluRay.Half-OU.x264.TrueHD.7.1.Atmos-FGT 18.73GB

[复制链接]
蓝光币
1084
发表于 2022-10-30 20:59:32 | 显示全部楼层 |阅读模式
[img][/img]

◎标  题 雷神4:爱与雷霆
◎译  名 雷神4 / 雷奇异侠4:爱与雷霆(港) / 雷神索尔:爱与雷霆(台)
◎片  名 Thor: Love and Thunder
◎年  代 2022
◎产  地 美国 / 澳大利亚
◎类  别 行动 / 奇异 / 冒险
◎语  言 英语
◎上映日期 2022(中国大陆) / 2022-07-06(中国香港) / 2022-07-08(美国)
◎IMDb链接 https://www.imdb.com/title/tt10648342/
◎豆瓣链接 https://movie.douban.com/subject/34477861/
◎片  长 119分钟
◎导  演 塔伊加·维迪提 Taika Waititi
◎编  剧 塔伊加·维迪提 Taika Waititi
       詹尼弗·凯廷·罗宾逊 Jennifer Kaytin Robinson
       斯坦·李 Stan Lee
◎演  员 克里斯·海姆斯沃斯 Chris Hemsworth
       娜塔莉·波特曼 Natalie Portman
       克里斯蒂安·贝尔 Christian Bale
       泰莎·汤普森 Tessa Thompson
       塔伊加·维迪提 Taika Waititi
       罗素·克劳 Russell Crowe
       杰米·亚历山大 Jaimie Alexander
       克里斯·帕拉特 Chris Pratt
       戴夫·巴蒂斯塔 Dave Bautista
       凯伦·吉兰 Karen Gillan
       庞·克莱门捷夫 Pom Klementieff
       肖恩·古恩 Sean Gunn
       范·迪塞尔 Vin Diesel
       布莱德利·库珀 Bradley Cooper
       本·法尔科内 Ben Falcone
       史蒂芬·库里 Stephen Curry
       鲍比·霍兰德·汉顿 Bobby Holland Hanton
       戴利·皮尔森 Daley Pearson
       西蒙·拉塞尔·比尔 Simon Russell Beale
       乔尼·布鲁 Jonny Brugh
       布鲁克·斯塔奇威尔 Brooke Satchwell
       埃尔莎·帕塔奇 Elsa Pataky
       埃莉扎·德苏扎 Eliza D'Souza
       卡恩·古尔杜尔 Kaan Guldur
       普里西拉·道伊西 Priscilla Doueihy
       斯蒂芬·亨特 Stephen Hunter
       印第安娜·伊万斯 Indiana Evans
       艾娃·卡约菲丽斯 Ava Caryofyllis
       本·辛克莱尔 Ben Sinclair
       博特·高登斯汀 Brett Goldstein
       卢克·海姆斯沃斯 Luke Hemsworth
       马特·达蒙 Matt Damon
       梅丽莎·麦卡西 Melissa McCarthy
       山姆·尼尔 Sam Neill
       马克·卡西米尔·戴妮奇斯 Mark Casimir Dyniewicz
       凯文·费奇 Kevin Feige
       马克·马瑟斯鲍夫 Mark Mothersbaugh
       玛耶斯·C·鲁贝奥 Mayes C. Rubeo
◎简  介

  影片故事发在在《复仇者同盟4:终局之战》事务以后,雷神索尔(克里斯·海姆斯沃斯 饰)踏上了一段他从未履历过的旅程:找回自我。但索尔的退休计划却被诡计消灭众神的屠神者格尔(克里斯蒂安·贝尔 饰)打断,他只好与女武神瓦尔基里(泰莎·汤普森 饰)和寇格(塔伊加·维迪提 饰)再次联手,其间更发现自己八年未见的前女友简·福斯特(娜塔莉·波特曼 饰)获得了雷神之力、挥舞着多年前在自己眼前扑灭的雷神之锤,令索尔惊奇不已。他们一路踏上了星际冒险,以揭开格尔的复仇之谜,并在为时已晚之前阻止他。
  1. Video
  2. ID                                       : 1
  3. Format                                   : AVC
  4. Format/Info                              : Advanced Video Codec
  5. Format profile                           : [email protected]
  6. Format settings                          : CABAC / 2 Ref Frames
  7. Format settings, CABAC                   : Yes
  8. Format settings, Reference frames        : 2 frames
  9. Format settings, GOP                     : M=3, N=24
  10. Codec ID                                 : V_MPEG4/ISO/AVC
  11. Duration                                 : 1 h 58 min
  12. Bit rate                                 : 14.8 Mb/s
  13. Nominal bit rate                         : 16.0 Mb/s
  14. Width                                    : 1 920 pixels
  15. Height                                   : 1 080 pixels
  16. Display aspect ratio                     : 16:9
  17. Frame rate mode                          : Constant
  18. Frame rate                               : 23.976 (24000/1001/189150) FPS
  19. Color space                              : YUV
  20. Chroma subsampling                       : 4:2:0
  21. Bit depth                                : 8 bits
  22. Scan type                                : Progressive
  23. Bits/(Pixel*Frame)                       : 0.298
  24. Stream size                              : 12.3 GiB (66%)
  25. Writing library                          : x264 core 148
  26. Encoding settings                        : cabac=1 / ref=1 / deblock=1:-1:-1 / analyse=0x3:0 / me=hex / subme=5 / psy=0 / mixed_ref=0 / me_range=16 / chroma_me=1 / trellis=0 / 8x8dct=1 / cqm=0 / deadzone=21,11 / fast_pskip=0 / chroma_qp_offset=0 / threads=48 / lookahead_threads=8 / sliced_threads=0 / nr=0 / decimate=1 / interlaced=0 / bluray_compat=0 / constrained_intra=0 / bframes=2 / b_pyramid=0 / b_adapt=1 / b_bias=0 / direct=1 / weightb=0 / open_gop=0 / weightp=0 / keyint=24 / keyint_min=13 / scenecut=40 / intra_refresh=0 / rc_lookahead=24 / rc=cbr / mbtree=0 / bitrate=16000 / ratetol=1.0 / qcomp=0.60 / qpmin=0 / qpmax=69 / qpstep=4 / vbv_maxrate=16000 / vbv_bufsize=16000 / nal_hrd=none / filler=0 / ip_ratio=1.40 / pb_ratio=1.30 / aq=1:1.00
  27. Default                                  : Yes
  28. Forced                                   : No
  29. Color range                              : Limited
  30. Color primaries                          : BT.709
  31. Transfer characteristics                 : BT.709
  32. Matrix coefficients                      : BT.709
  33. Audio #1
  34. ID                                       : 2
  35. Format                                   : MLP FBA 16-ch
  36. Format/Info                              : Meridian Lossless Packing FBA with 16-channel presentation
  37. Commercial name                          : Dolby TrueHD with Dolby Atmos
  38. Codec ID                                 : A_TRUEHD
  39. Duration                                 : 1 h 58 min
  40. Bit rate mode                            : Variable
  41. Bit rate                                 : 4 691 kb/s
  42. Maximum bit rate                         : 8 409 kb/s
  43. Channel(s)                               : 8 channels
  44. Channel layout                           : L R C LFE Ls Rs Lb Rb
  45. Sampling rate                            : 48.0 kHz
  46. Frame rate                               : 1 200.000 FPS (40 SPF)
  47. Compression mode                         : Lossless
  48. Stream size                              : 3.89 GiB (21%)
  49. Title                                    : TrueHD 7.1 Atmos
  50. Language                                 : English
  51. Default                                  : Yes
  52. Forced                                   : No
  53. Number of dynamic objects                : 13
  54. Bed channel count                        : 1 channel
  55. Bed channel configuration                : LFE
  56. Audio #2
  57. ID                                       : 3
  58. Format                                   : AC-3
  59. Format/Info                              : Audio Coding 3
  60. Commercial name                          : Dolby Digital
  61. Codec ID                                 : A_AC3
  62. Duration                                 : 1 h 58 min
  63. Bit rate mode                            : Constant
  64. Bit rate                                 : 640 kb/s
  65. Channel(s)                               : 6 channels
  66. Channel layout                           : L R C LFE Ls Rs
  67. Sampling rate                            : 48.0 kHz
  68. Frame rate                               : 31.250 FPS (1536 SPF)
  69. Compression mode                         : Lossy
  70. Stream size                              : 544 MiB (3%)
  71. Title                                    : DD 5.1
  72. Language                                 : English
  73. Service kind                             : Complete Main
  74. Default                                  : No
  75. Forced                                   : No
  76. Audio #3
  77. ID                                       : 4
  78. Format                                   : AC-3
  79. Format/Info                              : Audio Coding 3
  80. Commercial name                          : Dolby Digital
  81. Codec ID                                 : A_AC3
  82. Duration                                 : 1 h 58 min
  83. Bit rate mode                            : Constant
  84. Bit rate                                 : 192 kb/s
  85. Channel(s)                               : 2 channels
  86. Channel layout                           : L R
  87. Sampling rate                            : 48.0 kHz
  88. Frame rate                               : 31.250 FPS (1536 SPF)
  89. Compression mode                         : Lossy
  90. Stream size                              : 163 MiB (1%)
  91. Title                                    : Commentary by writer/director Taika Waititi
  92. Language                                 : English
  93. Service kind                             : Complete Main
  94. Default                                  : Yes
  95. Forced                                   : No
  96. Audio #4
  97. ID                                       : 5
  98. Format                                   : DTS XBR
  99. Format/Info                              : Digital Theater Systems
  100. Commercial name                          : DTS-HD High Resolution Audio
  101. Codec ID                                 : A_DTS
  102. Duration                                 : 1 h 58 min
  103. Bit rate mode                            : Constant
  104. Bit rate                                 : 2 046 kb/s
  105. Channel(s)                               : 8 channels
  106. Channel layout                           : C L R LFE Lb Rb Lss Rss
  107. Sampling rate                            : 48.0 kHz
  108. Frame rate                               : 93.750 FPS (512 SPF)
  109. Bit depth                                : 24 bits
  110. Compression mode                         : Lossy
  111. Stream size                              : 1.70 GiB (9%)
  112. Language                                 : Japanese
  113. Default                                  : No
  114. Forced                                   : No
  115. Text #1
  116. ID                                       : 6
  117. Format                                   : PGS
  118. Muxing mode                              : zlib
  119. Codec ID                                 : S_HDMV/PGS
  120. Codec ID/Info                            : Picture based subtitle format used on BDs/HD-DVDs
  121. Duration                                 : 1 h 57 min
  122. Bit rate                                 : 45.1 kb/s
  123. Frame rate                               : 0.459 FPS
  124. Count of elements                        : 3244
  125. Stream size                              : 38.0 MiB (0%)
  126. Language                                 : English
  127. Default                                  : Yes
  128. Forced                                   : No
  129. Text #2
  130. ID                                       : 7
  131. Format                                   : UTF-8
  132. Codec ID                                 : S_TEXT/UTF8
  133. Codec ID/Info                            : UTF-8 Plain Text
  134. Duration                                 : 1 h 57 min
  135. Bit rate                                 : 56 b/s
  136. Frame rate                               : 0.252 FPS
  137. Count of elements                        : 1782
  138. Stream size                              : 48.8 KiB (0%)
  139. Language                                 : English
  140. Default                                  : No
  141. Forced                                   : No
  142. Text #3
  143. ID                                       : 8
  144. Format                                   : UTF-8
  145. Codec ID                                 : S_TEXT/UTF8
  146. Codec ID/Info                            : UTF-8 Plain Text
  147. Duration                                 : 1 h 58 min
  148. Bit rate                                 : 69 b/s
  149. Frame rate                               : 0.319 FPS
  150. Count of elements                        : 2262
  151. Stream size                              : 60.2 KiB (0%)
  152. Title                                    : SDH
  153. Language                                 : English
  154. Default                                  : No
  155. Forced                                   : No
  156. Text #4
  157. ID                                       : 9
  158. Format                                   : UTF-8
  159. Codec ID                                 : S_TEXT/UTF8
  160. Codec ID/Info                            : UTF-8 Plain Text
  161. Duration                                 : 1 h 57 min
  162. Bit rate                                 : 48 b/s
  163. Frame rate                               : 0.227 FPS
  164. Count of elements                        : 1607
  165. Stream size                              : 41.8 KiB (0%)
  166. Language                                 : Czech
  167. Default                                  : No
  168. Forced                                   : No
  169. Text #5
  170. ID                                       : 10
  171. Format                                   : UTF-8
  172. Codec ID                                 : S_TEXT/UTF8
  173. Codec ID/Info                            : UTF-8 Plain Text
  174. Duration                                 : 1 h 57 min
  175. Bit rate                                 : 44 b/s
  176. Frame rate                               : 0.140 FPS
  177. Count of elements                        : 990
  178. Stream size                              : 38.4 KiB (0%)
  179. Language                                 : Danish
  180. Default                                  : No
  181. Forced                                   : No
  182. Text #6
  183. ID                                       : 11
  184. Format                                   : UTF-8
  185. Codec ID                                 : S_TEXT/UTF8
  186. Codec ID/Info                            : UTF-8 Plain Text
  187. Duration                                 : 1 h 57 min
  188. Bit rate                                 : 50 b/s
  189. Frame rate                               : 0.196 FPS
  190. Count of elements                        : 1388
  191. Stream size                              : 43.4 KiB (0%)
  192. Language                                 : Dutch
  193. Default                                  : No
  194. Forced                                   : No
  195. Text #7
  196. ID                                       : 12
  197. Format                                   : UTF-8
  198. Codec ID                                 : S_TEXT/UTF8
  199. Codec ID/Info                            : UTF-8 Plain Text
  200. Duration                                 : 1 h 57 min
  201. Bit rate                                 : 55 b/s
  202. Frame rate                               : 0.227 FPS
  203. Count of elements                        : 1606
  204. Stream size                              : 47.6 KiB (0%)
  205. Language                                 : Finnish
  206. Default                                  : No
  207. Forced                                   : No
  208. Text #8
  209. ID                                       : 13
  210. Format                                   : UTF-8
  211. Codec ID                                 : S_TEXT/UTF8
  212. Codec ID/Info                            : UTF-8 Plain Text
  213. Duration                                 : 1 h 57 min
  214. Bit rate                                 : 45 b/s
  215. Frame rate                               : 0.213 FPS
  216. Count of elements                        : 1504
  217. Stream size                              : 39.0 KiB (0%)
  218. Language                                 : French
  219. Default                                  : No
  220. Forced                                   : No
  221. Text #9
  222. ID                                       : 14
  223. Format                                   : UTF-8
  224. Codec ID                                 : S_TEXT/UTF8
  225. Codec ID/Info                            : UTF-8 Plain Text
  226. Duration                                 : 1 h 57 min
  227. Bit rate                                 : 46 b/s
  228. Frame rate                               : 0.208 FPS
  229. Count of elements                        : 1472
  230. Stream size                              : 40.5 KiB (0%)
  231. Language                                 : German
  232. Default                                  : No
  233. Forced                                   : No
  234. Text #10
  235. ID                                       : 15
  236. Format                                   : UTF-8
  237. Codec ID                                 : S_TEXT/UTF8
  238. Codec ID/Info                            : UTF-8 Plain Text
  239. Duration                                 : 1 h 57 min
  240. Bit rate                                 : 88 b/s
  241. Frame rate                               : 0.227 FPS
  242. Count of elements                        : 1602
  243. Stream size                              : 76.7 KiB (0%)
  244. Language                                 : Greek
  245. Default                                  : No
  246. Forced                                   : No
  247. Text #11
  248. ID                                       : 16
  249. Format                                   : UTF-8
  250. Codec ID                                 : S_TEXT/UTF8
  251. Codec ID/Info                            : UTF-8 Plain Text
  252. Duration                                 : 1 h 57 min
  253. Bit rate                                 : 46 b/s
  254. Frame rate                               : 0.228 FPS
  255. Count of elements                        : 1611
  256. Stream size                              : 40.5 KiB (0%)
  257. Language                                 : Hungarian
  258. Default                                  : No
  259. Forced                                   : No
  260. Text #12
  261. ID                                       : 17
  262. Format                                   : UTF-8
  263. Codec ID                                 : S_TEXT/UTF8
  264. Codec ID/Info                            : UTF-8 Plain Text
  265. Duration                                 : 1 h 57 min
  266. Bit rate                                 : 51 b/s
  267. Frame rate                               : 0.226 FPS
  268. Count of elements                        : 1601
  269. Stream size                              : 44.7 KiB (0%)
  270. Language                                 : Icelandic
  271. Default                                  : No
  272. Forced                                   : No
  273. Text #13
  274. ID                                       : 18
  275. Format                                   : UTF-8
  276. Codec ID                                 : S_TEXT/UTF8
  277. Codec ID/Info                            : UTF-8 Plain Text
  278. Duration                                 : 1 h 57 min
  279. Bit rate                                 : 56 b/s
  280. Frame rate                               : 0.227 FPS
  281. Count of elements                        : 1607
  282. Stream size                              : 48.8 KiB (0%)
  283. Language                                 : Italian
  284. Default                                  : No
  285. Forced                                   : No
  286. Text #14
  287. ID                                       : 19
  288. Format                                   : UTF-8
  289. Codec ID                                 : S_TEXT/UTF8
  290. Codec ID/Info                            : UTF-8 Plain Text
  291. Duration                                 : 1 h 57 min
  292. Bit rate                                 : 47 b/s
  293. Frame rate                               : 0.228 FPS
  294. Count of elements                        : 1612
  295. Stream size                              : 41.3 KiB (0%)
  296. Language                                 : Norwegian
  297. Default                                  : No
  298. Forced                                   : No
  299. Text #15
  300. ID                                       : 20
  301. Format                                   : UTF-8
  302. Codec ID                                 : S_TEXT/UTF8
  303. Codec ID/Info                            : UTF-8 Plain Text
  304. Duration                                 : 1 h 57 min
  305. Bit rate                                 : 42 b/s
  306. Frame rate                               : 0.228 FPS
  307. Count of elements                        : 1610
  308. Stream size                              : 37.0 KiB (0%)
  309. Language                                 : Polish
  310. Default                                  : No
  311. Forced                                   : No
  312. Text #16
  313. ID                                       : 21
  314. Format                                   : UTF-8
  315. Codec ID                                 : S_TEXT/UTF8
  316. Codec ID/Info                            : UTF-8 Plain Text
  317. Duration                                 : 1 h 58 min
  318. Bit rate                                 : 52 b/s
  319. Frame rate                               : 0.221 FPS
  320. Count of elements                        : 1573
  321. Stream size                              : 45.8 KiB (0%)
  322. Language                                 : Portuguese
  323. Default                                  : No
  324. Forced                                   : No
  325. Text #17
  326. ID                                       : 22
  327. Format                                   : UTF-8
  328. Codec ID                                 : S_TEXT/UTF8
  329. Codec ID/Info                            : UTF-8 Plain Text
  330. Duration                                 : 1 h 57 min
  331. Bit rate                                 : 55 b/s
  332. Frame rate                               : 0.211 FPS
  333. Count of elements                        : 1492
  334. Stream size                              : 47.6 KiB (0%)
  335. Language                                 : Romanian
  336. Default                                  : No
  337. Forced                                   : No
  338. Text #18
  339. ID                                       : 23
  340. Format                                   : UTF-8
  341. Codec ID                                 : S_TEXT/UTF8
  342. Codec ID/Info                            : UTF-8 Plain Text
  343. Duration                                 : 1 h 57 min
  344. Bit rate                                 : 46 b/s
  345. Frame rate                               : 0.228 FPS
  346. Count of elements                        : 1612
  347. Stream size                              : 39.8 KiB (0%)
  348. Language                                 : Slovak
  349. Default                                  : No
  350. Forced                                   : No
  351. Text #19
  352. ID                                       : 24
  353. Format                                   : UTF-8
  354. Codec ID                                 : S_TEXT/UTF8
  355. Codec ID/Info                            : UTF-8 Plain Text
  356. Duration                                 : 1 h 57 min
  357. Bit rate                                 : 49 b/s
  358. Frame rate                               : 0.227 FPS
  359. Count of elements                        : 1603
  360. Stream size                              : 42.7 KiB (0%)
  361. Language                                 : Spanish
  362. Default                                  : No
  363. Forced                                   : No
  364. Text #20
  365. ID                                       : 25
  366. Format                                   : UTF-8
  367. Codec ID                                 : S_TEXT/UTF8
  368. Codec ID/Info                            : UTF-8 Plain Text
  369. Duration                                 : 1 h 57 min
  370. Bit rate                                 : 47 b/s
  371. Frame rate                               : 0.165 FPS
  372. Count of elements                        : 1166
  373. Stream size                              : 41.1 KiB (0%)
  374. Language                                 : Swedish
  375. Default                                  : No
  376. Forced                                   : No
  377. Text #21
  378. ID                                       : 26
  379. Format                                   : UTF-8
  380. Codec ID                                 : S_TEXT/UTF8
  381. Codec ID/Info                            : UTF-8 Plain Text
  382. Duration                                 : 1 h 57 min
  383. Bit rate                                 : 53 b/s
  384. Frame rate                               : 0.228 FPS
  385. Count of elements                        : 1609
  386. Stream size                              : 46.1 KiB (0%)
  387. Language                                 : Turkish
  388. Default                                  : No
  389. Forced                                   : No
  390. Text #22
  391. ID                                       : 27
  392. Format                                   : PGS
  393. Muxing mode                              : zlib
  394. Codec ID                                 : S_HDMV/PGS
  395. Codec ID/Info                            : Picture based subtitle format used on BDs/HD-DVDs
  396. Duration                                 : 1 h 58 min
  397. Bit rate                                 : 52.5 kb/s
  398. Frame rate                               : 0.641 FPS
  399. Count of elements                        : 4548
  400. Stream size                              : 44.4 MiB (0%)
  401. Title                                    : SDH
  402. Language                                 : English
  403. Default                                  : No
  404. Forced                                   : No
  405. Text #23
  406. ID                                       : 28
  407. Format                                   : PGS
  408. Muxing mode                              : zlib
  409. Codec ID                                 : S_HDMV/PGS
  410. Codec ID/Info                            : Picture based subtitle format used on BDs/HD-DVDs
  411. Duration                                 : 1 h 57 min
  412. Bit rate                                 : 27.2 kb/s
  413. Frame rate                               : 0.280 FPS
  414. Count of elements                        : 1980
  415. Stream size                              : 22.9 MiB (0%)
  416. Language                                 : Danish
  417. Default                                  : No
  418. Forced                                   : No
  419. Text #24
  420. ID                                       : 29
  421. Format                                   : PGS
  422. Muxing mode                              : zlib
  423. Codec ID                                 : S_HDMV/PGS
  424. Codec ID/Info                            : Picture based subtitle format used on BDs/HD-DVDs
  425. Duration                                 : 1 h 57 min
  426. Bit rate                                 : 31.6 kb/s
  427. Frame rate                               : 0.392 FPS
  428. Count of elements                        : 2772
  429. Stream size                              : 26.6 MiB (0%)
  430. Language                                 : Dutch
  431. Default                                  : No
  432. Forced                                   : No
  433. Text #25
  434. ID                                       : 30
  435. Format                                   : PGS
  436. Muxing mode                              : zlib
  437. Codec ID                                 : S_HDMV/PGS
  438. Codec ID/Info                            : Picture based subtitle format used on BDs/HD-DVDs
  439. Duration                                 : 1 h 57 min
  440. Bit rate                                 : 35.0 kb/s
  441. Frame rate                               : 0.453 FPS
  442. Count of elements                        : 3206
  443. Stream size                              : 29.5 MiB (0%)
  444. Language                                 : Finnish
  445. Default                                  : No
  446. Forced                                   : No
  447. Text #26
  448. ID                                       : 31
  449. Format                                   : PGS
  450. Muxing mode                              : zlib
  451. Codec ID                                 : S_HDMV/PGS
  452. Codec ID/Info                            : Picture based subtitle format used on BDs/HD-DVDs
  453. Duration                                 : 1 h 57 min
  454. Bit rate                                 : 27.5 kb/s
  455. Frame rate                               : 0.425 FPS
  456. Count of elements                        : 3006
  457. Stream size                              : 23.2 MiB (0%)
  458. Title                                    : Parisian
  459. Language                                 : French
  460. Default                                  : No
  461. Forced                                   : No
  462. Text #27
  463. ID                                       : 32
  464. Format                                   : PGS
  465. Muxing mode                              : zlib
  466. Codec ID                                 : S_HDMV/PGS
  467. Codec ID/Info                            : Picture based subtitle format used on BDs/HD-DVDs
  468. Duration                                 : 1 h 57 min
  469. Bit rate                                 : 38.7 kb/s
  470. Frame rate                               : 0.462 FPS
  471. Count of elements                        : 3270
  472. Stream size                              : 32.6 MiB (0%)
  473. Language                                 : French
  474. Default                                  : No
  475. Forced                                   : No
  476. Text #28
  477. ID                                       : 33
  478. Format                                   : PGS
  479. Muxing mode                              : zlib
  480. Codec ID                                 : S_HDMV/PGS
  481. Codec ID/Info                            : Picture based subtitle format used on BDs/HD-DVDs
  482. Duration                                 : 1 h 57 min
  483. Bit rate                                 : 30.5 kb/s
  484. Frame rate                               : 0.416 FPS
  485. Count of elements                        : 2940
  486. Stream size                              : 25.7 MiB (0%)
  487. Language                                 : German
  488. Default                                  : No
  489. Forced                                   : No
  490. Text #29
  491. ID                                       : 34
  492. Format                                   : PGS
  493. Muxing mode                              : zlib
  494. Codec ID                                 : S_HDMV/PGS
  495. Codec ID/Info                            : Picture based subtitle format used on BDs/HD-DVDs
  496. Duration                                 : 1 h 57 min
  497. Bit rate                                 : 23.9 kb/s
  498. Frame rate                               : 0.439 FPS
  499. Count of elements                        : 3106
  500. Stream size                              : 20.1 MiB (0%)
  501. Language                                 : Japanese
  502. Default                                  : No
  503. Forced                                   : No
  504. Text #30
  505. ID                                       : 35
  506. Format                                   : PGS
  507. Muxing mode                              : zlib
  508. Codec ID                                 : S_HDMV/PGS
  509. Codec ID/Info                            : Picture based subtitle format used on BDs/HD-DVDs
  510. Duration                                 : 1 h 57 min
  511. Bit rate                                 : 29.6 kb/s
  512. Frame rate                               : 0.455 FPS
  513. Count of elements                        : 3218
  514. Stream size                              : 25.0 MiB (0%)
  515. Language                                 : Norwegian
  516. Default                                  : No
  517. Forced                                   : No
  518. Text #31
  519. ID                                       : 36
  520. Format                                   : PGS
  521. Muxing mode                              : zlib
  522. Codec ID                                 : S_HDMV/PGS
  523. Codec ID/Info                            : Picture based subtitle format used on BDs/HD-DVDs
  524. Duration                                 : 1 h 57 min
  525. Bit rate                                 : 38.1 kb/s
  526. Frame rate                               : 0.456 FPS
  527. Count of elements                        : 3224
  528. Stream size                              : 32.1 MiB (0%)
  529. Title                                    : Latin American
  530. Language                                 : Spanish
  531. Default                                  : No
  532. Forced                                   : No
  533. Text #32
  534. ID                                       : 37
  535. Format                                   : PGS
  536. Muxing mode                              : zlib
  537. Codec ID                                 : S_HDMV/PGS
  538. Codec ID/Info                            : Picture based subtitle format used on BDs/HD-DVDs
  539. Duration                                 : 1 h 57 min
  540. Bit rate                                 : 28.7 kb/s
  541. Frame rate                               : 0.331 FPS
  542. Count of elements                        : 2338
  543. Stream size                              : 24.2 MiB (0%)
  544. Language                                 : Swedish
  545. Default                                  : No
  546. Forced                                   : No
  547. Menu
  548. 00:00:00.000                             : :Chapter 01
  549. 00:06:45.155                             : :Chapter 02
  550. 00:10:11.319                             : :Chapter 03
  551. 00:14:23.780                             : :Chapter 04
  552. 00:18:13.426                             : :Chapter 05
  553. 00:20:59.508                             : :Chapter 06
  554. 00:21:47.806                             : :Chapter 07
  555. 00:27:00.994                             : :Chapter 08
  556. 00:28:16.194                             : :Chapter 09
  557. 00:29:52.249                             : :Chapter 10
  558. 00:31:24.508                             : :Chapter 11
  559. 00:35:15.113                             : :Chapter 12
  560. 00:38:40.443                             : :Chapter 13
  561. 00:45:37.443                             : :Chapter 14
  562. 00:53:04.223                             : :Chapter 15
  563. 01:06:19.392                             : :Chapter 16
  564. 01:14:16.911                             : :Chapter 17
  565. 01:24:35.821                             : :Chapter 18
  566. 01:28:31.181                             : :Chapter 19
  567. 01:30:19.998                             : :Chapter 20
  568. 01:34:17.652                             : :Chapter 21
  569. 01:38:12.678                             : :Chapter 22
  570. 01:44:45.529                             : :Chapter 23
  571. 01:48:17.616                             : :Chapter 24
  572. 01:50:03.430                             : :Chapter 25
  573. 01:51:14.710                             : :Chapter 26
复制代码




                                       
                                       

                                       
                                       
                                       




回复

使用道具 举报

蓝光币
46
发表于 2022-11-3 22:09:12 | 显示全部楼层

感谢楼主的无私分享!要想蓝光电影网好 就靠你我他
回复 支持 反对

使用道具 举报

蓝光币
289
发表于 2022-11-6 09:36:58 | 显示全部楼层
楼主发贴辛苦了,谢谢楼主分享!我觉得蓝光电影网是注册对了!
回复 支持 反对

使用道具 举报

蓝光币
29
发表于 2022-11-8 09:17:03 | 显示全部楼层
好东西,感谢分享
回复 支持 反对

使用道具 举报

蓝光币
100
发表于 2022-11-8 16:46:17 | 显示全部楼层
好东西,感谢分享
回复 支持 反对

使用道具 举报

蓝光币
360
发表于 2022-11-9 15:52:03 | 显示全部楼层

感谢楼主的无私分享!要想蓝光电影网好 就靠你我他
回复 支持 反对

使用道具 举报

蓝光币
0
发表于 2022-11-10 15:40:28 | 显示全部楼层

好东西,感谢分享
回复 支持 反对

使用道具 举报

蓝光币
1
发表于 2022-11-11 20:10:01 | 显示全部楼层
taizi840909 发表于 2022-11-8 09:17
好东西,感谢分享


楼主发贴辛苦了,谢谢楼主分享!我觉得蓝光电影网是注册对了!
回复 支持 反对

使用道具 举报

蓝光币
35
发表于 2022-11-13 00:59:55 | 显示全部楼层

既然你诚信诚意的推荐了,那我就勉为其难的看看吧!蓝光电影网不走平凡路。
回复 支持 反对

使用道具 举报

蓝光币
360
发表于 2022-11-13 12:33:00 | 显示全部楼层

这东西我收了!谢谢楼主!蓝光电影网真好!
回复 支持 反对

使用道具 举报

懒得打字嘛,点击右侧快捷回复 【右侧内容,后台自定义】
您需要登录后才可以回帖 登录 | 立即加入

本版积分规则

Archiver|小黑屋| 蓝光电影网 |网站地图

Copyright © 2021 Comsenz Inc. Powered by 蓝光电影网

蓝光电影网

本站内容由用户自主分享和转载自互联网,转载目的在于传递更多信息,并不代表本网赞同其观点和对其真实性负责。

如有侵权、违反国家法律政策行为,请联系我们,我们会第一时间及时清除和处理!

举报反馈邮箱:[email protected]

快速回复 返回顶部 返回列表