找回密码

蓝光电影网

查看: 110|回复: 1

[2160p] 诺亚方舟:创世之旅 Noah.2014.2160p.WEB-DL.x265.8bit.SDR.DTS-HD.MA.7.1-dB 15.42GB

[复制链接]
蓝光币
1084
发表于 2022-11-29 21:16:53 | 显示全部楼层 |阅读模式
[img][/img]

◎标  题 诺亚方舟:创世之旅
◎译  名 挪亚:灭世启迪(港) / 诺亚
◎片  名 Noah
◎年  代 2014
◎产  地 美国
◎类  别 行动 / 冒险 / 灾难
◎语  言 英语
◎上映日期 2014-03-10(墨西哥首映) / 2014-03-28(美国)
◎IMDb评分 5.7/10 (250072人评价)
◎IMDb链接 https://www.imdb.com/title/tt1959490/
◎豆瓣评分 5.9/10 (25209人评价)
◎豆瓣链接 https://movie.douban.com/subject/6959152/
◎片  长 138分钟
◎导  演 达伦·阿伦诺夫斯基 Darren Aronofsky
◎编  剧 达伦·阿伦诺夫斯基 Darren Aronofsky
       阿里·韩德尔 Ari Handel
◎演  员 罗素·克劳 Russell Crowe
       詹妮弗·康纳利 Jennifer Connelly
       雷·温斯顿 Ray Winstone
       安东尼·霍普金斯 Anthony Hopkins
       艾玛·沃森 Emma Watson
       罗根·勒曼 Logan Lerman
       道格拉斯·布斯 Douglas Booth
       尼克·诺特 Nick Nolte
       马克·马戈利斯 Mark Margolis
       凯文·杜兰 Kevin Durand
       莱奥·麦克休·卡罗尔 Leo McHugh Carroll
       马尔顿·索克斯 Marton Csokas
       芬·维特洛克 Finn Wittrock
       麦蒂森·达文波特 Madison Davenport
       加文·卡萨莱尼奥 Gavin Casalegno
       诺兰·格罗斯 Nolan Gross
       斯凯拉·伯克 Skylar Burke
       达科塔·高尤 Dakota Goyo
       阿丽亚娜·莱因哈特 Ariane Rinehart
       亚当·格里菲思 Adam Griffith
       苏菲·内薇德  Sophie Nyweide
       唐·哈维 Don Harvey
       萨米·盖尔 Sami Gayle
       巴里·斯隆 Barry Sloane
       弗兰克·兰格拉 Frank Langella
       戴维·J·马尔 Davy J. Marr
       布里安娜·威廉姆斯 Boriana Williams
       卢多维克·库托 Ludovic Coutaud
       阿诺恩·米尔坎 Arnon Milchan
       达伦·阿伦诺夫斯基 Darren Aronofsky
       克林特·曼塞尔 Clint Mansell
       马修·利巴提克 Matthew Libatique
       C·迈克尔·尼利 C. Michael Neely
       保罗·阿克里 Paolo Acri
◎标  签 美国 / 宗教 / 灾难 / 科幻 / 2014 / 人性 / 史诗 / 剧情
◎简  介

  《诺亚方舟》按照圣经故事改编,由达伦·阿伦诺夫斯基亲身创作剧本和同名漫画。这是一个没有希望的天下,没有雨、没有食粮,军阀和蛮横的游牧部落统治一切。诺亚是这个残暴天下的一个好人,一个久经沙场的战士、法师和治疗师,他只想和家人过上安宁安静的生活。但是,天天早晨他城市被一个噩梦所熬煎,梦里全部天下被一场大大水淹没。久而久之他意想到,这正是造物主给他的讯号,天首要赏罚人类,把他们杀光……但他给了诺亚一个机遇,让他得以保存地球上的物种。
  1. Video
  2. ID                                       : 1
  3. Format                                   : HEVC
  4. Format/Info                              : High Efficiency Video Coding
  5. Format profile                           : [email protected]@Main
  6. Codec ID                                 : V_MPEGH/ISO/HEVC
  7. Duration                                 : 2 h 17 min
  8. Bit rate                                 : 9 318 kb/s
  9. Width                                    : 3 840 pixels
  10. Height                                   : 2 160 pixels
  11. Display aspect ratio                     : 16:9
  12. Frame rate mode                          : Constant
  13. Frame rate                               : 23.976 (24000/1001/189150) FPS
  14. Color space                              : YUV
  15. Chroma subsampling                       : 4:2:0
  16. Bit depth                                : 8 bits
  17. Bits/(Pixel*Frame)                       : 0.047
  18. Stream size                              : 8.97 GiB (58%)
  19. Writing library                          : x265 3.5f0c1022b6:[Linux][GCC 9.3.0][64 bit] 8bit+10bit+12bit
  20. Encoding settings                        : cpuid=1111039 / frame-threads=4 / wpp / no-pmode / no-pme / no-psnr / no-ssim / log-level=2 / input-csp=1 / input-res=3840x2160 / interlace=0 / total-frames=0 / level-idc=0 / high-tier=1 / uhd-bd=0 / ref=4 / no-allow-non-conformance / repeat-headers / annexb / no-aud / no-eob / no-eos / no-hrd / info / hash=0 / no-temporal-layers / open-gop / min-keyint=48 / keyint=48 / gop-lookahead=0 / bframes=4 / b-adapt=2 / b-pyramid / bframe-bias=0 / rc-lookahead=25 / lookahead-slices=4 / scenecut=0 / no-hist-scenecut / radl=0 / no-splice / no-intra-refresh / ctu=64 / min-cu-size=8 / rect / no-amp / max-tu-size=32 / tu-inter-depth=1 / tu-intra-depth=1 / limit-tu=0 / rdoq-level=2 / dynamic-rd=0.00 / no-ssim-rd / signhide / no-tskip / nr-intra=0 / nr-inter=0 / no-constrained-intra / strong-intra-smoothing / max-merge=3 / limit-refs=3 / limit-modes / me=3 / subme=3 / merange=57 / temporal-mvp / no-frame-dup / no-hme / weightp / no-weightb / no-analyze-src-pics / deblock=0:0 / sao / no-sao-non-deblock / rd=4 / selective-sao=4 / no-early-skip / rskip / no-fast-intra / no-tskip-fast / no-cu-lossless / no-b-intra / no-splitrd-skip / rdpenalty=0 / psy-rd=2.00 / psy-rdoq=1.00 / no-rd-refine / no-lossless / cbqpoffs=0 / crqpoffs=0 / rc=abr / bitrate=9505 / qcomp=0.60 / qpstep=4 / stats-write=0 / stats-read=2 / cplxblur=20.0 / qblur=0.5 / vbv-maxrate=11406 / vbv-bufsize=9505 / vbv-init=0.8 / min-vbv-fullness=50.0 / max-vbv-fullness=80.0 / ipratio=1.40 / pbratio=1.30 / aq-mode=2 / aq-strength=1.00 / cutree / zone-count=0 / no-strict-cbr / qg-size=32 / no-rc-grain / qpmax=69 / qpmin=0 / no-const-vbv / sar=1 / overscan=0 / videoformat=5 / range=0 / colorprim=1 / transfer=1 / colormatrix=1 / chromaloc=0 / display-window=0 / cll=0,0 / min-luma=0 / max-luma=255 / log2-max-poc-lsb=8 / vui-timing-info / vui-hrd-info / slices=1 / no-opt-qp-pps / no-opt-ref-list-length-pps / no-multi-pass-opt-rps / scenecut-bias=0.05 / hist-threshold=0.03 / no-opt-cu-delta-qp / no-aq-motion / no-hdr10 / no-hdr10-opt / no-dhdr10-opt / no-idr-recovery-sei / analysis-reuse-level=0 / analysis-save-reuse-level=0 / analysis-load-reuse-level=0 / scale-factor=0 / refine-intra=0 / refine-inter=0 / refine-mv=1 / refine-ctu-distortion=0 / no-limit-sao / ctu-info=0 / no-lowpass-dct / refine-analysis-type=0 / copy-pic=1 / max-ausize-factor=1.0 / no-dynamic-refine / no-single-sei / no-hevc-aq / no-svt / no-field / qp-adaptation-range=1.00 / scenecut-aware-qp=0conformance-window-offsets / right=0 / bottom=0 / decoder-max-rate=0 / no-vbv-live-multi-pass
  21. Language                                 : English
  22. Default                                  : Yes
  23. Forced                                   : No
  24. Color range                              : Limited
  25. Color primaries                          : BT.709
  26. Transfer characteristics                 : BT.709
  27. Matrix coefficients                      : BT.709

  28. Audio #1
  29. ID                                       : 2
  30. Format                                   : DTS XLL
  31. Format/Info                              : Digital Theater Systems
  32. Commercial name                          : DTS-HD Master Audio
  33. Codec ID                                 : A_DTS
  34. Duration                                 : 2 h 17 min
  35. Bit rate mode                            : Variable
  36. Bit rate                                 : 5 149 kb/s
  37. Channel(s)                               : 8 channels
  38. Channel layout                           : C L R LFE Lb Rb Lss Rss
  39. Sampling rate                            : 48.0 kHz
  40. Frame rate                               : 93.750 FPS (512 SPF)
  41. Bit depth                                : 24 bits
  42. Compression mode                         : Lossless
  43. Stream size                              : 4.96 GiB (32%)
  44. Language                                 : English
  45. Default                                  : Yes
  46. Forced                                   : No

  47. Audio #2
  48. ID                                       : 3
  49. Format                                   : E-AC-3
  50. Format/Info                              : Enhanced AC-3
  51. Commercial name                          : Dolby Digital Plus
  52. Format profile                           : Blu-ray Disc
  53. Format settings                          : Dolby Surround EX
  54. Codec ID                                 : A_EAC3
  55. Duration                                 : 2 h 17 min
  56. Bit rate mode                            : Constant
  57. Bit rate                                 : 1 536 kb/s
  58. Channel(s)                               : 8 channels
  59. Channel layout                           : L R C LFE Ls Rs Lb Rb
  60. Sampling rate                            : 48.0 kHz
  61. Frame rate                               : 31.250 FPS (1536 SPF)
  62. Compression mode                         : Lossy
  63. Stream size                              : 1.48 GiB (10%)
  64. Title                                    : Dolby Digital Plus 7.1 | Compatibility Track
  65. Language                                 : English
  66. Service kind                             : Complete Main
  67. Default                                  : No
  68. Forced                                   : No

  69. Text #1
  70. ID                                       : 4
  71. Format                                   : UTF-8
  72. Codec ID                                 : S_TEXT/UTF8
  73. Codec ID/Info                            : UTF-8 Plain Text
  74. Duration                                 : 2 h 8 min
  75. Bit rate                                 : 28 b/s
  76. Frame rate                               : 0.156 FPS
  77. Count of elements                        : 1203
  78. Stream size                              : 26.8 KiB (0%)
  79. Language                                 : English
  80. Default                                  : No
  81. Forced                                   : No

  82. Text #2
  83. ID                                       : 5
  84. Format                                   : UTF-8
  85. Codec ID                                 : S_TEXT/UTF8
  86. Codec ID/Info                            : UTF-8 Plain Text
  87. Duration                                 : 2 h 9 min
  88. Bit rate                                 : 33 b/s
  89. Frame rate                               : 0.189 FPS
  90. Count of elements                        : 1470
  91. Stream size                              : 32.1 KiB (0%)
  92. Title                                    : SDH
  93. Language                                 : English
  94. Default                                  : No
  95. Forced                                   : No

  96. Text #3
  97. ID                                       : 6
  98. Format                                   : UTF-8
  99. Codec ID                                 : S_TEXT/UTF8
  100. Codec ID/Info                            : UTF-8 Plain Text
  101. Duration                                 : 2 h 17 min
  102. Bit rate                                 : 39 b/s
  103. Frame rate                               : 0.134 FPS
  104. Count of elements                        : 1100
  105. Stream size                              : 39.6 KiB (0%)
  106. Language                                 : Arabic
  107. Default                                  : No
  108. Forced                                   : No

  109. Text #4
  110. ID                                       : 7
  111. Format                                   : UTF-8
  112. Codec ID                                 : S_TEXT/UTF8
  113. Codec ID/Info                            : UTF-8 Plain Text
  114. Duration                                 : 2 h 17 min
  115. Bit rate                                 : 27 b/s
  116. Frame rate                               : 0.114 FPS
  117. Count of elements                        : 941
  118. Stream size                              : 27.5 KiB (0%)
  119. Language                                 : Danish
  120. Default                                  : No
  121. Forced                                   : No

  122. Text #5
  123. ID                                       : 8
  124. Format                                   : UTF-8
  125. Codec ID                                 : S_TEXT/UTF8
  126. Codec ID/Info                            : UTF-8 Plain Text
  127. Duration                                 : 2 h 17 min
  128. Bit rate                                 : 29 b/s
  129. Frame rate                               : 0.134 FPS
  130. Count of elements                        : 1102
  131. Stream size                              : 29.5 KiB (0%)
  132. Language                                 : German
  133. Default                                  : No
  134. Forced                                   : No

  135. Text #6
  136. ID                                       : 9
  137. Format                                   : UTF-8
  138. Codec ID                                 : S_TEXT/UTF8
  139. Codec ID/Info                            : UTF-8 Plain Text
  140. Duration                                 : 2 h 13 min
  141. Bit rate                                 : 27 b/s
  142. Frame rate                               : 0.135 FPS
  143. Count of elements                        : 1077
  144. Stream size                              : 27.1 KiB (0%)
  145. Language                                 : Spanish
  146. Default                                  : No
  147. Forced                                   : No

  148. Text #7
  149. ID                                       : 10
  150. Format                                   : UTF-8
  151. Codec ID                                 : S_TEXT/UTF8
  152. Codec ID/Info                            : UTF-8 Plain Text
  153. Duration                                 : 2 h 17 min
  154. Bit rate                                 : 28 b/s
  155. Frame rate                               : 0.134 FPS
  156. Count of elements                        : 1106
  157. Stream size                              : 28.2 KiB (0%)
  158. Language                                 : Spanish
  159. Default                                  : No
  160. Forced                                   : No

  161. Text #8
  162. ID                                       : 11
  163. Format                                   : UTF-8
  164. Codec ID                                 : S_TEXT/UTF8
  165. Codec ID/Info                            : UTF-8 Plain Text
  166. Duration                                 : 2 h 17 min
  167. Bit rate                                 : 27 b/s
  168. Frame rate                               : 0.138 FPS
  169. Count of elements                        : 1137
  170. Stream size                              : 27.2 KiB (0%)
  171. Language                                 : Finnish
  172. Default                                  : No
  173. Forced                                   : No

  174. Text #9
  175. ID                                       : 12
  176. Format                                   : UTF-8
  177. Codec ID                                 : S_TEXT/UTF8
  178. Codec ID/Info                            : UTF-8 Plain Text
  179. Duration                                 : 2 h 16 min
  180. Bit rate                                 : 36 b/s
  181. Frame rate                               : 0.176 FPS
  182. Count of elements                        : 1448
  183. Stream size                              : 36.5 KiB (0%)
  184. Language                                 : fil
  185. Default                                  : No
  186. Forced                                   : No

  187. Text #10
  188. ID                                       : 13
  189. Format                                   : UTF-8
  190. Codec ID                                 : S_TEXT/UTF8
  191. Codec ID/Info                            : UTF-8 Plain Text
  192. Duration                                 : 2 h 17 min
  193. Bit rate                                 : 26 b/s
  194. Frame rate                               : 0.138 FPS
  195. Count of elements                        : 1139
  196. Stream size                              : 26.5 KiB (0%)
  197. Language                                 : French
  198. Default                                  : No
  199. Forced                                   : No

  200. Text #11
  201. ID                                       : 14
  202. Format                                   : UTF-8
  203. Codec ID                                 : S_TEXT/UTF8
  204. Codec ID/Info                            : UTF-8 Plain Text
  205. Duration                                 : 2 h 17 min
  206. Bit rate                                 : 70 b/s
  207. Frame rate                               : 0.138 FPS
  208. Count of elements                        : 1138
  209. Stream size                              : 70.4 KiB (0%)
  210. Language                                 : Hindi
  211. Default                                  : No
  212. Forced                                   : No

  213. Text #12
  214. ID                                       : 15
  215. Format                                   : UTF-8
  216. Codec ID                                 : S_TEXT/UTF8
  217. Codec ID/Info                            : UTF-8 Plain Text
  218. Duration                                 : 2 h 17 min
  219. Bit rate                                 : 26 b/s
  220. Frame rate                               : 0.133 FPS
  221. Count of elements                        : 1100
  222. Stream size                              : 27.1 KiB (0%)
  223. Language                                 : Italian
  224. Default                                  : No
  225. Forced                                   : No

  226. Text #13
  227. ID                                       : 16
  228. Format                                   : UTF-8
  229. Codec ID                                 : S_TEXT/UTF8
  230. Codec ID/Info                            : UTF-8 Plain Text
  231. Duration                                 : 2 h 9 min
  232. Bit rate                                 : 27 b/s
  233. Frame rate                               : 0.135 FPS
  234. Count of elements                        : 1053
  235. Stream size                              : 26.2 KiB (0%)
  236. Language                                 : Japanese
  237. Default                                  : No
  238. Forced                                   : No

  239. Text #14
  240. ID                                       : 17
  241. Format                                   : UTF-8
  242. Codec ID                                 : S_TEXT/UTF8
  243. Codec ID/Info                            : UTF-8 Plain Text
  244. Duration                                 : 2 h 17 min
  245. Bit rate                                 : 30 b/s
  246. Frame rate                               : 0.134 FPS
  247. Count of elements                        : 1102
  248. Stream size                              : 30.3 KiB (0%)
  249. Language                                 : Korean
  250. Default                                  : No
  251. Forced                                   : No

  252. Text #15
  253. ID                                       : 18
  254. Format                                   : UTF-8
  255. Codec ID                                 : S_TEXT/UTF8
  256. Codec ID/Info                            : UTF-8 Plain Text
  257. Duration                                 : 2 h 9 min
  258. Bit rate                                 : 35 b/s
  259. Frame rate                               : 0.153 FPS
  260. Count of elements                        : 1195
  261. Stream size                              : 34.1 KiB (0%)
  262. Language                                 : Malay
  263. Default                                  : No
  264. Forced                                   : No

  265. Text #16
  266. ID                                       : 19
  267. Format                                   : UTF-8
  268. Codec ID                                 : S_TEXT/UTF8
  269. Codec ID/Info                            : UTF-8 Plain Text
  270. Duration                                 : 2 h 17 min
  271. Bit rate                                 : 27 b/s
  272. Frame rate                               : 0.116 FPS
  273. Count of elements                        : 953
  274. Stream size                              : 27.6 KiB (0%)
  275. Language                                 : Dutch
  276. Default                                  : No
  277. Forced                                   : No

  278. Text #17
  279. ID                                       : 20
  280. Format                                   : UTF-8
  281. Codec ID                                 : S_TEXT/UTF8
  282. Codec ID/Info                            : UTF-8 Plain Text
  283. Duration                                 : 2 h 17 min
  284. Bit rate                                 : 26 b/s
  285. Frame rate                               : 0.134 FPS
  286. Count of elements                        : 1100
  287. Stream size                              : 26.4 KiB (0%)
  288. Language                                 : Norwegian
  289. Default                                  : No
  290. Forced                                   : No

  291. Text #18
  292. ID                                       : 21
  293. Format                                   : UTF-8
  294. Codec ID                                 : S_TEXT/UTF8
  295. Codec ID/Info                            : UTF-8 Plain Text
  296. Duration                                 : 2 h 17 min
  297. Bit rate                                 : 24 b/s
  298. Frame rate                               : 0.132 FPS
  299. Count of elements                        : 1088
  300. Stream size                              : 25.1 KiB (0%)
  301. Language                                 : Polish
  302. Default                                  : No
  303. Forced                                   : No

  304. Text #19
  305. ID                                       : 22
  306. Format                                   : UTF-8
  307. Codec ID                                 : S_TEXT/UTF8
  308. Codec ID/Info                            : UTF-8 Plain Text
  309. Duration                                 : 2 h 13 min
  310. Bit rate                                 : 26 b/s
  311. Frame rate                               : 0.138 FPS
  312. Count of elements                        : 1101
  313. Stream size                              : 26.0 KiB (0%)
  314. Language                                 : Portuguese
  315. Default                                  : No
  316. Forced                                   : No

  317. Text #20
  318. ID                                       : 23
  319. Format                                   : UTF-8
  320. Codec ID                                 : S_TEXT/UTF8
  321. Codec ID/Info                            : UTF-8 Plain Text
  322. Duration                                 : 2 h 17 min
  323. Bit rate                                 : 27 b/s
  324. Frame rate                               : 0.134 FPS
  325. Count of elements                        : 1107
  326. Stream size                              : 28.0 KiB (0%)
  327. Language                                 : Portuguese
  328. Default                                  : No
  329. Forced                                   : No

  330. Text #21
  331. ID                                       : 24
  332. Format                                   : UTF-8
  333. Codec ID                                 : S_TEXT/UTF8
  334. Codec ID/Info                            : UTF-8 Plain Text
  335. Duration                                 : 2 h 9 min
  336. Bit rate                                 : 28 b/s
  337. Frame rate                               : 0.147 FPS
  338. Count of elements                        : 1146
  339. Stream size                              : 26.9 KiB (0%)
  340. Language                                 : Romanian
  341. Default                                  : No
  342. Forced                                   : No

  343. Text #22
  344. ID                                       : 25
  345. Format                                   : UTF-8
  346. Codec ID                                 : S_TEXT/UTF8
  347. Codec ID/Info                            : UTF-8 Plain Text
  348. Duration                                 : 2 h 17 min
  349. Bit rate                                 : 44 b/s
  350. Frame rate                               : 0.135 FPS
  351. Count of elements                        : 1107
  352. Stream size                              : 44.7 KiB (0%)
  353. Language                                 : Russian
  354. Default                                  : No
  355. Forced                                   : No

  356. Text #23
  357. ID                                       : 26
  358. Format                                   : UTF-8
  359. Codec ID                                 : S_TEXT/UTF8
  360. Codec ID/Info                            : UTF-8 Plain Text
  361. Duration                                 : 2 h 17 min
  362. Bit rate                                 : 27 b/s
  363. Frame rate                               : 0.132 FPS
  364. Count of elements                        : 1085
  365. Stream size                              : 27.7 KiB (0%)
  366. Language                                 : Swedish
  367. Default                                  : No
  368. Forced                                   : No

  369. Text #24
  370. ID                                       : 27
  371. Format                                   : UTF-8
  372. Codec ID                                 : S_TEXT/UTF8
  373. Codec ID/Info                            : UTF-8 Plain Text
  374. Duration                                 : 2 h 17 min
  375. Bit rate                                 : 28 b/s
  376. Frame rate                               : 0.134 FPS
  377. Count of elements                        : 1102
  378. Stream size                              : 28.9 KiB (0%)
  379. Language                                 : Turkish
  380. Default                                  : No
  381. Forced                                   : No

  382. Text #25
  383. ID                                       : 28
  384. Format                                   : UTF-8
  385. Codec ID                                 : S_TEXT/UTF8
  386. Codec ID/Info                            : UTF-8 Plain Text
  387. Duration                                 : 2 h 9 min
  388. Bit rate                                 : 26 b/s
  389. Frame rate                               : 0.146 FPS
  390. Count of elements                        : 1135
  391. Stream size                              : 25.6 KiB (0%)
  392. Language                                 : Chinese
  393. Default                                  : No
  394. Forced                                   : No

  395. Text #26
  396. ID                                       : 29
  397. Format                                   : UTF-8
  398. Codec ID                                 : S_TEXT/UTF8
  399. Codec ID/Info                            : UTF-8 Plain Text
  400. Duration                                 : 2 h 17 min
  401. Bit rate                                 : 25 b/s
  402. Frame rate                               : 0.138 FPS
  403. Count of elements                        : 1137
  404. Stream size                              : 25.4 KiB (0%)
  405. Language                                 : Chinese
  406. Default                                  : No
  407. Forced                                   : No

  408. Menu
  409. 00:00:00.000                             : en:Studio Logo
  410. 00:00:09.000                             : en:Studio Logos
  411. 00:00:42.000                             : en:Prologue
  412. 00:02:12.000                             : en:The last of Seth's line becomes a man
  413. 00:04:49.000                             : en:Title Sequence
  414. 00:04:57.000                             : en:Noah picks wild herbs with his sons
  415. 00:07:57.000                             : en:Noah offers a sacrifice to the Creator
  416. 00:08:45.000                             : en:Noah returns to his wife and home
  417. 00:10:36.000                             : en:Noah has a vision of things to come
  418. 00:12:30.000                             : en:Naameh asks Noah if making the trek is the best plan for the whole family
  419. 00:13:23.000                             : en:Noah's family begins the jounrey to Methuselah's mountain
  420. 00:13:51.000                             : en:Noah and the others encounter an exhausted zohar mine
  421. 00:17:09.000                             : en:The watchers consider what to do with Noah
  422. 00:18:51.000                             : en:The little girl wakes in the night
  423. 00:20:53.000                             : en:The watcher guides Noah's family and tells its tale
  424. 00:23:33.000                             : en:Noah takes Shem to search for Methuselah
  425. 00:30:07.000                             : en:Noah returns to Naameh with what he's learned
  426. 00:32:15.000                             : en:Watchers arrive to take the traitor
  427. 00:34:41.000                             : en:Years pass as Noah and the others get to work building the ark
  428. 00:36:20.000                             : en:Shem chases Ila through the woods
  429. 00:37:35.000                             : en:The winged creatures of the world find the ark
  430. 00:41:09.000                             : en:Ham asks his father for a mate, those that creep, crawl, and slither arrive
  431. 00:42:51.000                             : en:Other humans appear in the woods
  432. 00:49:28.000                             : en:Tubal-cain prepares his people for battle
  433. 00:49:58.000                             : en:The land mammals of the world arrive at the ark
  434. 00:51:21.000                             : en:Tubal-cain watches as his people carry out his orders
  435. 00:51:57.000                             : en:Ila asks Noah what the attack will be like
  436. 00:54:44.000                             : en:Noah inspects the people's camp
  437. 00:57:10.000                             : en:Ham asks his father if he has found him a wife
  438. 01:00:55.000                             : en:Ham runs from father, Naameh goes to see Methuselah
  439. 01:03:37.000                             : en:Ham explores the other camp
  440. 01:06:01.000                             : en:Noah sends Shem to find Ham, Ila meets a stranger in the forest
  441. 01:09:02.000                             : en:The rain begins to fall, Tubal-cain speaks to his people
  442. 01:12:07.000                             : en:The others attack the giants and Noah
  443. 01:22:03.000                             : en:Noah's family begs him to save the others
  444. 01:24:46.000                             : en:Noah tells the story of how the world came to be
  445. 01:27:47.000                             : en:Noah tells the others their part in saving Creation, Ham finds a stranger
  446. 01:30:46.000                             : en:Naameh does her best to comfort Noah
  447. 01:32:31.000                             : en:Ham tends to Tubal-cain's wounds
  448. 01:34:10.000                             : en:Ila wakes in the night to a strange feeling
  449. 01:35:45.000                             : en:Ila and Shem ask for his father's blessing
  450. 01:38:33.000                             : en:The rain comes to an end
  451. 01:42:42.000                             : en:Naameh begs for her grandchild's life
  452. 01:45:44.000                             : en:Tubal-cain picks his moment to strike, Ila's time is upon her
  453. 01:56:06.000                             : en:Noah comes for the children
  454. 02:00:44.000                             : en:Noah drinks himself into a stupor
  455. 02:02:07.000                             : en:Ham and his brothers go to see their father
  456. 02:04:09.000                             : en:Ham sets off on his own
  457. 02:04:56.000                             : en:Ila talks to Noah about his choice
  458. 02:07:23.000                             : en:Noah returns to his wife
  459. 02:09:24.000                             : en:Noah blesses his grandchildren
  460. 02:11:40.000                             : en:End Credits
复制代码




                                       
                                       

                                       
                                       
                                       




回复

使用道具 举报

蓝光币
79
发表于 2022-11-30 21:32:17 | 显示全部楼层
谢谢分享
回复

使用道具 举报

懒得打字嘛,点击右侧快捷回复 【右侧内容,后台自定义】
您需要登录后才可以回帖 登录 | 立即加入

本版积分规则

Archiver|小黑屋| 蓝光电影网 |网站地图

Copyright © 2021 Comsenz Inc. Powered by 蓝光电影网

蓝光电影网

本站内容由用户自主分享和转载自互联网,转载目的在于传递更多信息,并不代表本网赞同其观点和对其真实性负责。

如有侵权、违反国家法律政策行为,请联系我们,我们会第一时间及时清除和处理!

举报反馈邮箱:[email protected]

快速回复 返回顶部 返回列表