找回密码

蓝光电影网

查看: 175|回复: 5

[2160p] 鬼影特攻:以暴制暴 6.Underground.2019.2160p.NF.WEB-DL.x265.10bit.SDR.DDP5.1.Atmos-SLOT 11.42GB

[复制链接]
蓝光币
1084
发表于 2022-11-29 22:28:50 | 显示全部楼层 |阅读模式
[img][/img]

◎标  题 鬼影特攻:以暴制暴
◎译  名 地下6号 / 六尺之下 / 飞天遁地 / Six Underground
◎片  名 6 Underground
◎年  代 2019
◎产  地 美国
◎类  别 行动 / 惊悚
◎语  言 英语 / 土库曼语 / 粤语 / 意大利语 / 西班牙语 / 乌克兰语 / 法语
◎上映日期 2019-12-13(美国)
◎IMDb评分 6.1/10 (158125人评价)
◎IMDb链接 https://www.imdb.com/title/tt8106534/
◎豆瓣评分 6.4/10 (31627人评价)
◎豆瓣链接 https://movie.douban.com/subject/30163500/
◎片  长 127分钟
◎导  演 迈克尔·贝 Michael Bay
◎编  剧 保罗·韦尼克 Paul Wernick
       瑞特·里斯 Rhett Reese
◎演  员 瑞安·雷诺兹 Ryan Reynolds
       本·哈迪 Ben Hardy
       梅拉尼·罗兰 Mélanie Laurent
       阿德里娅·阿霍纳 Adria Arjona
       戴夫·弗兰科 Dave Franco
       科里·霍金斯 Corey Hawkins
       塞巴斯蒂安·罗奇 Sebastian Roché
       曼努埃尔·加西亚-鲁尔福 Manuel Garcia-Rulfo
       詹姆斯·莫瑞 James Murray
       利奥·拉兹 Lior Raz
       埃莱娜·卡多纳 Hélène Cardona
       佩曼·莫阿迪 Peyman Moadi
       尤里·科洛科利尼科夫 Yuri Kolokolnikov
       金·柯尔德 Kim Kold
       丹尼尔·阿德博伊加 Daniel Adegboyega
       詹姆斯·卡罗尔·乔丹 James Carroll Jordan
       康斯坦丁·格雷戈里 Constantine Gregory
       彼得·阿佩塞拉 Peter Arpesella
       托多尔·乔丹诺夫 Todor Jordanov
       里纳特·希什马塔林 Rinat Khismatouline
       莉迪亚·佛朗哥 Lídia Franco
       罗杰·内瓦雷斯 Roger Nevares
       舒巴姆·沙拉夫 Shubham Saraf
       埃琳娜·鲁斯科尼 Elena Rusconi
◎标  签 行动 / 美国 / 暴力 / 犯罪 / Netflix / 奸细 / 2019 / 黑色诙谐
◎简  介

    来自天下各地的六人,个个都是各自范畴的佼佼者。他们之所以被选中,不单是由于才能出众,还在于其怪异的志向:他们想抹杀自己的曩昔以改变未来。一位奥秘的魁首(瑞恩·雷诺兹饰)将他们召集到一路组成了这个团队,他终生唯一的使命就是确保即使他和自己的同伴会被忘记,但也要让人们永久铭刻他们所做的一切。
  1. Video
  2. ID                                       : 1
  3. Format                                   : HEVC
  4. Format/Info                              : High Efficiency Video Coding
  5. Format profile                           : Main [email protected]@Main
  6. Codec ID                                 : V_MPEGH/ISO/HEVC
  7. Duration                                 : 2 h 8 min
  8. Bit rate                                 : 11.9 Mb/s
  9. Width                                    : 3 840 pixels
  10. Height                                   : 2 160 pixels
  11. Display aspect ratio                     : 16:9
  12. Frame rate mode                          : Constant
  13. Frame rate                               : 23.976 (24000/1001/189150) FPS
  14. Color space                              : YUV
  15. Chroma subsampling                       : 4:2:0
  16. Bit depth                                : 10 bits
  17. Bits/(Pixel*Frame)                       : 0.060
  18. Stream size                              : 10.7 GiB (94%)
  19. Default                                  : Yes
  20. Forced                                   : No
  21. Color range                              : Limited
  22. Color primaries                          : BT.709
  23. Transfer characteristics                 : BT.709
  24. Matrix coefficients                      : BT.709

  25. Audio
  26. ID                                       : 2
  27. Format                                   : E-AC-3 JOC
  28. Format/Info                              : Enhanced AC-3 with Joint Object Coding
  29. Commercial name                          : Dolby Digital Plus with Dolby Atmos
  30. Codec ID                                 : A_EAC3
  31. Duration                                 : 2 h 8 min
  32. Bit rate mode                            : Constant
  33. Bit rate                                 : 768 kb/s
  34. Channel(s)                               : 6 channels
  35. Channel layout                           : L R C LFE Ls Rs
  36. Sampling rate                            : 48.0 kHz
  37. Frame rate                               : 31.250 FPS (1536 SPF)
  38. Compression mode                         : Lossy
  39. Stream size                              : 708 MiB (6%)
  40. Language                                 : English
  41. Service kind                             : Complete Main
  42. Default                                  : Yes
  43. Forced                                   : No
  44. Complexity index                         : 16
  45. Number of dynamic objects                : 15
  46. Bed channel count                        : 1 channel
  47. Bed channel configuration                : LFE

  48. Text #1
  49. ID                                       : 3
  50. Format                                   : UTF-8
  51. Codec ID                                 : S_TEXT/UTF8
  52. Codec ID/Info                            : UTF-8 Plain Text
  53. Duration                                 : 1 h 38 min
  54. Bit rate                                 : 0 b/s
  55. Frame rate                               : 0.003 FPS
  56. Count of elements                        : 17
  57. Stream size                              : 428 Bytes (0%)
  58. Title                                    : English Forced
  59. Language                                 : English
  60. Default                                  : Yes
  61. Forced                                   : Yes

  62. Text #2
  63. ID                                       : 4
  64. Format                                   : UTF-8
  65. Codec ID                                 : S_TEXT/UTF8
  66. Codec ID/Info                            : UTF-8 Plain Text
  67. Duration                                 : 2 h 5 min
  68. Bit rate                                 : 59 b/s
  69. Frame rate                               : 0.227 FPS
  70. Count of elements                        : 1704
  71. Stream size                              : 54.4 KiB (0%)
  72. Title                                    : English
  73. Language                                 : English
  74. Default                                  : No
  75. Forced                                   : No

  76. Text #3
  77. ID                                       : 5
  78. Format                                   : UTF-8
  79. Codec ID                                 : S_TEXT/UTF8
  80. Codec ID/Info                            : UTF-8 Plain Text
  81. Duration                                 : 2 h 7 min
  82. Bit rate                                 : 78 b/s
  83. Frame rate                               : 0.288 FPS
  84. Count of elements                        : 2197
  85. Stream size                              : 73.0 KiB (0%)
  86. Title                                    : English SDH
  87. Language                                 : English
  88. Default                                  : No
  89. Forced                                   : No

  90. Text #4
  91. ID                                       : 6
  92. Format                                   : UTF-8
  93. Codec ID                                 : S_TEXT/UTF8
  94. Codec ID/Info                            : UTF-8 Plain Text
  95. Duration                                 : 2 h 7 min
  96. Bit rate                                 : 97 b/s
  97. Frame rate                               : 0.229 FPS
  98. Count of elements                        : 1755
  99. Stream size                              : 91.7 KiB (0%)
  100. Title                                    : Arabic
  101. Language                                 : Arabic
  102. Default                                  : No
  103. Forced                                   : No

  104. Text #5
  105. ID                                       : 7
  106. Format                                   : UTF-8
  107. Codec ID                                 : S_TEXT/UTF8
  108. Codec ID/Info                            : UTF-8 Plain Text
  109. Duration                                 : 2 h 7 min
  110. Bit rate                                 : 50 b/s
  111. Frame rate                               : 0.221 FPS
  112. Count of elements                        : 1696
  113. Stream size                              : 46.9 KiB (0%)
  114. Title                                    : Czech
  115. Language                                 : Czech
  116. Default                                  : No
  117. Forced                                   : No

  118. Text #6
  119. ID                                       : 8
  120. Format                                   : UTF-8
  121. Codec ID                                 : S_TEXT/UTF8
  122. Codec ID/Info                            : UTF-8 Plain Text
  123. Duration                                 : 2 h 5 min
  124. Bit rate                                 : 53 b/s
  125. Frame rate                               : 0.217 FPS
  126. Count of elements                        : 1634
  127. Stream size                              : 49.0 KiB (0%)
  128. Title                                    : Danish
  129. Language                                 : Danish
  130. Default                                  : No
  131. Forced                                   : No

  132. Text #7
  133. ID                                       : 9
  134. Format                                   : UTF-8
  135. Codec ID                                 : S_TEXT/UTF8
  136. Codec ID/Info                            : UTF-8 Plain Text
  137. Duration                                 : 2 h 5 min
  138. Bit rate                                 : 58 b/s
  139. Frame rate                               : 0.219 FPS
  140. Count of elements                        : 1645
  141. Stream size                              : 53.9 KiB (0%)
  142. Title                                    : German
  143. Language                                 : German
  144. Default                                  : No
  145. Forced                                   : No

  146. Text #8
  147. ID                                       : 10
  148. Format                                   : UTF-8
  149. Codec ID                                 : S_TEXT/UTF8
  150. Codec ID/Info                            : UTF-8 Plain Text
  151. Duration                                 : 2 h 5 min
  152. Bit rate                                 : 90 b/s
  153. Frame rate                               : 0.228 FPS
  154. Count of elements                        : 1716
  155. Stream size                              : 83.2 KiB (0%)
  156. Title                                    : Greek
  157. Language                                 : Greek
  158. Default                                  : No
  159. Forced                                   : No

  160. Text #9
  161. ID                                       : 11
  162. Format                                   : UTF-8
  163. Codec ID                                 : S_TEXT/UTF8
  164. Codec ID/Info                            : UTF-8 Plain Text
  165. Duration                                 : 2 h 5 min
  166. Bit rate                                 : 56 b/s
  167. Frame rate                               : 0.228 FPS
  168. Count of elements                        : 1713
  169. Stream size                              : 51.6 KiB (0%)
  170. Title                                    : Spanish Latin American
  171. Language                                 : Spanish
  172. Default                                  : No
  173. Forced                                   : No

  174. Text #10
  175. ID                                       : 12
  176. Format                                   : UTF-8
  177. Codec ID                                 : S_TEXT/UTF8
  178. Codec ID/Info                            : UTF-8 Plain Text
  179. Duration                                 : 2 h 5 min
  180. Bit rate                                 : 52 b/s
  181. Frame rate                               : 0.229 FPS
  182. Count of elements                        : 1724
  183. Stream size                              : 48.3 KiB (0%)
  184. Title                                    : Spanish European
  185. Language                                 : Spanish
  186. Default                                  : No
  187. Forced                                   : No

  188. Text #11
  189. ID                                       : 13
  190. Format                                   : UTF-8
  191. Codec ID                                 : S_TEXT/UTF8
  192. Codec ID/Info                            : UTF-8 Plain Text
  193. Duration                                 : 2 h 5 min
  194. Bit rate                                 : 52 b/s
  195. Frame rate                               : 0.197 FPS
  196. Count of elements                        : 1480
  197. Stream size                              : 48.3 KiB (0%)
  198. Title                                    : Finnish
  199. Language                                 : Finnish
  200. Default                                  : No
  201. Forced                                   : No

  202. Text #12
  203. ID                                       : 14
  204. Format                                   : UTF-8
  205. Codec ID                                 : S_TEXT/UTF8
  206. Codec ID/Info                            : UTF-8 Plain Text
  207. Duration                                 : 2 h 7 min
  208. Bit rate                                 : 54 b/s
  209. Frame rate                               : 0.228 FPS
  210. Count of elements                        : 1746
  211. Stream size                              : 50.9 KiB (0%)
  212. Title                                    : fil
  213. Language                                 : fil
  214. Default                                  : No
  215. Forced                                   : No

  216. Text #13
  217. ID                                       : 15
  218. Format                                   : UTF-8
  219. Codec ID                                 : S_TEXT/UTF8
  220. Codec ID/Info                            : UTF-8 Plain Text
  221. Duration                                 : 2 h 7 min
  222. Bit rate                                 : 56 b/s
  223. Frame rate                               : 0.211 FPS
  224. Count of elements                        : 1618
  225. Stream size                              : 52.6 KiB (0%)
  226. Title                                    : French
  227. Language                                 : French
  228. Default                                  : No
  229. Forced                                   : No

  230. Text #14
  231. ID                                       : 16
  232. Format                                   : UTF-8
  233. Codec ID                                 : S_TEXT/UTF8
  234. Codec ID/Info                            : UTF-8 Plain Text
  235. Duration                                 : 2 h 7 min
  236. Bit rate                                 : 93 b/s
  237. Frame rate                               : 0.222 FPS
  238. Count of elements                        : 1706
  239. Stream size                              : 88.0 KiB (0%)
  240. Title                                    : Hebrew
  241. Language                                 : Hebrew
  242. Default                                  : No
  243. Forced                                   : No

  244. Text #15
  245. ID                                       : 17
  246. Format                                   : UTF-8
  247. Codec ID                                 : S_TEXT/UTF8
  248. Codec ID/Info                            : UTF-8 Plain Text
  249. Duration                                 : 2 h 5 min
  250. Bit rate                                 : 151 b/s
  251. Frame rate                               : 0.233 FPS
  252. Count of elements                        : 1753
  253. Stream size                              : 139 KiB (0%)
  254. Title                                    : Hindi
  255. Language                                 : Hindi
  256. Default                                  : No
  257. Forced                                   : No

  258. Text #16
  259. ID                                       : 18
  260. Format                                   : UTF-8
  261. Codec ID                                 : S_TEXT/UTF8
  262. Codec ID/Info                            : UTF-8 Plain Text
  263. Duration                                 : 2 h 7 min
  264. Bit rate                                 : 46 b/s
  265. Frame rate                               : 0.221 FPS
  266. Count of elements                        : 1693
  267. Stream size                              : 43.7 KiB (0%)
  268. Title                                    : Croatian
  269. Language                                 : Croatian
  270. Default                                  : No
  271. Forced                                   : No

  272. Text #17
  273. ID                                       : 19
  274. Format                                   : UTF-8
  275. Codec ID                                 : S_TEXT/UTF8
  276. Codec ID/Info                            : UTF-8 Plain Text
  277. Duration                                 : 2 h 5 min
  278. Bit rate                                 : 54 b/s
  279. Frame rate                               : 0.221 FPS
  280. Count of elements                        : 1665
  281. Stream size                              : 50.0 KiB (0%)
  282. Title                                    : Hungarian
  283. Language                                 : Hungarian
  284. Default                                  : No
  285. Forced                                   : No

  286. Text #18
  287. ID                                       : 20
  288. Format                                   : UTF-8
  289. Codec ID                                 : S_TEXT/UTF8
  290. Codec ID/Info                            : UTF-8 Plain Text
  291. Duration                                 : 2 h 7 min
  292. Bit rate                                 : 51 b/s
  293. Frame rate                               : 0.227 FPS
  294. Count of elements                        : 1743
  295. Stream size                              : 48.3 KiB (0%)
  296. Title                                    : Indonesian
  297. Language                                 : Indonesian
  298. Default                                  : No
  299. Forced                                   : No

  300. Text #19
  301. ID                                       : 21
  302. Format                                   : UTF-8
  303. Codec ID                                 : S_TEXT/UTF8
  304. Codec ID/Info                            : UTF-8 Plain Text
  305. Duration                                 : 2 h 5 min
  306. Bit rate                                 : 52 b/s
  307. Frame rate                               : 0.231 FPS
  308. Count of elements                        : 1735
  309. Stream size                              : 48.5 KiB (0%)
  310. Title                                    : Italian
  311. Language                                 : Italian
  312. Default                                  : No
  313. Forced                                   : No

  314. Text #20
  315. ID                                       : 22
  316. Format                                   : UTF-8
  317. Codec ID                                 : S_TEXT/UTF8
  318. Codec ID/Info                            : UTF-8 Plain Text
  319. Duration                                 : 2 h 7 min
  320. Bit rate                                 : 47 b/s
  321. Frame rate                               : 0.235 FPS
  322. Count of elements                        : 1802
  323. Stream size                              : 44.4 KiB (0%)
  324. Title                                    : Japanese
  325. Language                                 : Japanese
  326. Default                                  : No
  327. Forced                                   : No

  328. Text #21
  329. ID                                       : 23
  330. Format                                   : UTF-8
  331. Codec ID                                 : S_TEXT/UTF8
  332. Codec ID/Info                            : UTF-8 Plain Text
  333. Duration                                 : 2 h 7 min
  334. Bit rate                                 : 61 b/s
  335. Frame rate                               : 0.229 FPS
  336. Count of elements                        : 1758
  337. Stream size                              : 57.5 KiB (0%)
  338. Title                                    : Korean
  339. Language                                 : Korean
  340. Default                                  : No
  341. Forced                                   : No

  342. Text #22
  343. ID                                       : 24
  344. Format                                   : UTF-8
  345. Codec ID                                 : S_TEXT/UTF8
  346. Codec ID/Info                            : UTF-8 Plain Text
  347. Duration                                 : 2 h 7 min
  348. Bit rate                                 : 52 b/s
  349. Frame rate                               : 0.216 FPS
  350. Count of elements                        : 1657
  351. Stream size                              : 48.9 KiB (0%)
  352. Title                                    : Malay
  353. Language                                 : Malay
  354. Default                                  : No
  355. Forced                                   : No

  356. Text #23
  357. ID                                       : 25
  358. Format                                   : UTF-8
  359. Codec ID                                 : S_TEXT/UTF8
  360. Codec ID/Info                            : UTF-8 Plain Text
  361. Duration                                 : 2 h 5 min
  362. Bit rate                                 : 49 b/s
  363. Frame rate                               : 0.220 FPS
  364. Count of elements                        : 1658
  365. Stream size                              : 45.8 KiB (0%)
  366. Title                                    : Norwegian Bokmal
  367. Language                                 : Norwegian Bokmal
  368. Default                                  : No
  369. Forced                                   : No

  370. Text #24
  371. ID                                       : 26
  372. Format                                   : UTF-8
  373. Codec ID                                 : S_TEXT/UTF8
  374. Codec ID/Info                            : UTF-8 Plain Text
  375. Duration                                 : 2 h 7 min
  376. Bit rate                                 : 50 b/s
  377. Frame rate                               : 0.182 FPS
  378. Count of elements                        : 1395
  379. Stream size                              : 47.1 KiB (0%)
  380. Title                                    : Dutch
  381. Language                                 : Dutch
  382. Default                                  : No
  383. Forced                                   : No

  384. Text #25
  385. ID                                       : 27
  386. Format                                   : UTF-8
  387. Codec ID                                 : S_TEXT/UTF8
  388. Codec ID/Info                            : UTF-8 Plain Text
  389. Duration                                 : 2 h 5 min
  390. Bit rate                                 : 47 b/s
  391. Frame rate                               : 0.228 FPS
  392. Count of elements                        : 1717
  393. Stream size                              : 44.1 KiB (0%)
  394. Title                                    : Polish
  395. Language                                 : Polish
  396. Default                                  : No
  397. Forced                                   : No

  398. Text #26
  399. ID                                       : 28
  400. Format                                   : UTF-8
  401. Codec ID                                 : S_TEXT/UTF8
  402. Codec ID/Info                            : UTF-8 Plain Text
  403. Duration                                 : 2 h 7 min
  404. Bit rate                                 : 49 b/s
  405. Frame rate                               : 0.219 FPS
  406. Count of elements                        : 1679
  407. Stream size                              : 46.5 KiB (0%)
  408. Title                                    : Portuguese Brazilian
  409. Language                                 : Portuguese
  410. Default                                  : No
  411. Forced                                   : No

  412. Text #27
  413. ID                                       : 29
  414. Format                                   : UTF-8
  415. Codec ID                                 : S_TEXT/UTF8
  416. Codec ID/Info                            : UTF-8 Plain Text
  417. Duration                                 : 2 h 7 min
  418. Bit rate                                 : 57 b/s
  419. Frame rate                               : 0.225 FPS
  420. Count of elements                        : 1725
  421. Stream size                              : 53.6 KiB (0%)
  422. Title                                    : Portuguese European
  423. Language                                 : Portuguese
  424. Default                                  : No
  425. Forced                                   : No

  426. Text #28
  427. ID                                       : 30
  428. Format                                   : UTF-8
  429. Codec ID                                 : S_TEXT/UTF8
  430. Codec ID/Info                            : UTF-8 Plain Text
  431. Duration                                 : 2 h 5 min
  432. Bit rate                                 : 61 b/s
  433. Frame rate                               : 0.223 FPS
  434. Count of elements                        : 1677
  435. Stream size                              : 56.5 KiB (0%)
  436. Title                                    : Romanian
  437. Language                                 : Romanian
  438. Default                                  : No
  439. Forced                                   : No

  440. Text #29
  441. ID                                       : 31
  442. Format                                   : UTF-8
  443. Codec ID                                 : S_TEXT/UTF8
  444. Codec ID/Info                            : UTF-8 Plain Text
  445. Duration                                 : 2 h 5 min
  446. Bit rate                                 : 87 b/s
  447. Frame rate                               : 0.218 FPS
  448. Count of elements                        : 1643
  449. Stream size                              : 80.2 KiB (0%)
  450. Title                                    : Russian
  451. Language                                 : Russian
  452. Default                                  : No
  453. Forced                                   : No

  454. Text #30
  455. ID                                       : 32
  456. Format                                   : UTF-8
  457. Codec ID                                 : S_TEXT/UTF8
  458. Codec ID/Info                            : UTF-8 Plain Text
  459. Duration                                 : 2 h 5 min
  460. Bit rate                                 : 53 b/s
  461. Frame rate                               : 0.204 FPS
  462. Count of elements                        : 1537
  463. Stream size                              : 49.3 KiB (0%)
  464. Title                                    : Swedish
  465. Language                                 : Swedish
  466. Default                                  : No
  467. Forced                                   : No

  468. Text #31
  469. ID                                       : 33
  470. Format                                   : UTF-8
  471. Codec ID                                 : S_TEXT/UTF8
  472. Codec ID/Info                            : UTF-8 Plain Text
  473. Duration                                 : 2 h 7 min
  474. Bit rate                                 : 144 b/s
  475. Frame rate                               : 0.229 FPS
  476. Count of elements                        : 1755
  477. Stream size                              : 135 KiB (0%)
  478. Title                                    : Thai
  479. Language                                 : Thai
  480. Default                                  : No
  481. Forced                                   : No

  482. Text #32
  483. ID                                       : 34
  484. Format                                   : UTF-8
  485. Codec ID                                 : S_TEXT/UTF8
  486. Codec ID/Info                            : UTF-8 Plain Text
  487. Duration                                 : 2 h 7 min
  488. Bit rate                                 : 52 b/s
  489. Frame rate                               : 0.213 FPS
  490. Count of elements                        : 1633
  491. Stream size                              : 49.2 KiB (0%)
  492. Title                                    : Turkish
  493. Language                                 : Turkish
  494. Default                                  : No
  495. Forced                                   : No

  496. Text #33
  497. ID                                       : 35
  498. Format                                   : UTF-8
  499. Codec ID                                 : S_TEXT/UTF8
  500. Codec ID/Info                            : UTF-8 Plain Text
  501. Duration                                 : 2 h 5 min
  502. Bit rate                                 : 75 b/s
  503. Frame rate                               : 0.229 FPS
  504. Count of elements                        : 1725
  505. Stream size                              : 69.0 KiB (0%)
  506. Title                                    : Vietnamese
  507. Language                                 : Vietnamese
  508. Default                                  : No
  509. Forced                                   : No

  510. Text #34
  511. ID                                       : 36
  512. Format                                   : UTF-8
  513. Codec ID                                 : S_TEXT/UTF8
  514. Codec ID/Info                            : UTF-8 Plain Text
  515. Duration                                 : 2 h 7 min
  516. Bit rate                                 : 65 b/s
  517. Frame rate                               : 0.230 FPS
  518. Count of elements                        : 1761
  519. Stream size                              : 61.5 KiB (0%)
  520. Title                                    : Chinese Simplified
  521. Language                                 : Chinese
  522. Default                                  : No
  523. Forced                                   : No

  524. Text #35
  525. ID                                       : 37
  526. Format                                   : UTF-8
  527. Codec ID                                 : S_TEXT/UTF8
  528. Codec ID/Info                            : UTF-8 Plain Text
  529. Duration                                 : 2 h 7 min
  530. Bit rate                                 : 55 b/s
  531. Frame rate                               : 0.231 FPS
  532. Count of elements                        : 1772
  533. Stream size                              : 51.9 KiB (0%)
  534. Title                                    : Chinese Traditional
  535. Language                                 : Chinese
  536. Default                                  : No
  537. Forced                                   : No

  538. Menu
  539. 00:00:00.000                             : en:Part 01
  540. 02:06:38.450                             : en:Credits
复制代码




                                       
                                       

                                       
                                       
                                       




回复

使用道具 举报

蓝光币
129
发表于 2022-11-29 23:15:51 | 显示全部楼层

楼主太厉害了!楼主,电影应该很好看我觉得蓝光电影网真是个好地方!
回复 支持 反对

使用道具 举报

蓝光币
27
发表于 2022-11-29 23:32:38 | 显示全部楼层

既然你诚信诚意的推荐了,那我就勉为其难的看看吧!蓝光电影网不走平凡路。
回复 支持 反对

使用道具 举报

蓝光币
123
发表于 2022-11-30 09:00:42 | 显示全部楼层

楼主太厉害了!楼主,电影应该很好看我觉得蓝光电影网真是个好地方!
回复 支持 反对

使用道具 举报

蓝光币
93
发表于 2022-11-30 09:03:00 | 显示全部楼层
顶楼主发帖辛苦,见证蓝光电影网一步一步走向辉煌
回复 支持 反对

使用道具 举报

蓝光币
0
发表于 2022-11-30 09:49:54 | 显示全部楼层
厉害厉害,多谢楼主。
回复 支持 反对

使用道具 举报

懒得打字嘛,点击右侧快捷回复 【右侧内容,后台自定义】
您需要登录后才可以回帖 登录 | 立即加入

本版积分规则

Archiver|小黑屋| 蓝光电影网 |网站地图

Copyright © 2021 Comsenz Inc. Powered by 蓝光电影网

蓝光电影网

本站内容由用户自主分享和转载自互联网,转载目的在于传递更多信息,并不代表本网赞同其观点和对其真实性负责。

如有侵权、违反国家法律政策行为,请联系我们,我们会第一时间及时清除和处理!

举报反馈邮箱:[email protected]

快速回复 返回顶部 返回列表