找回密码

蓝光电影网

查看: 45|回复: 0

[剧情] 萨拉丁 Saladin.1963.ARABIC.1080p.NF.WEBRip.DDP2.0.x264-playWEB 8.03GB

[复制链接]
蓝光币
1084
发表于 2022-11-29 22:39:26 | 显示全部楼层 |阅读模式
[img][/img]

◎标  题 萨拉丁
◎译  名 Saladin and the Great Crusades
◎片  名 El Naser Salah el Dine
◎年  代 1963
◎产  地 埃及
◎类  别 剧情 / 行动 / 冒险
◎语  言 阿拉伯语
◎上映日期 1963-07(莫斯科电影节)
◎IMDb评分 7.6/10 (2584人评价)
◎IMDb链接 https://www.imdb.com/title/tt0057357/
◎豆瓣评分 7.6/10 (124人评价)
◎豆瓣链接 https://movie.douban.com/subject/3240140/
◎片  长 175 分钟(Lebanon)
◎导  演 尤瑟夫·夏因 Youssef Chahine
◎编  剧 尤瑟夫·夏因 Youssef Chahine
       Naguib Mahfouz Naguib Mahfouz
       伊泽丁·祖勒菲卡尔 Ezzel Dine Zulficar
◎演  员 Ahmed Mazhar Ahmed Mazhar
       纳迪娅·卢特菲 Nadia Lutfi
       Salah Zulfikar Salah Zulfikar
       Hussein Riad Hussein Riad
       Tewfik El Dekn Tewfik El Dekn
       Mahmoud El-Meliguy Mahmoud El-Meliguy
       Omar El-Hariri Omar El-Hariri
       Nahed Sabri Nahed Sabri
       尤瑟夫·夏因 Youssef Chahine
       安杰洛·弗朗切斯科·拉瓦尼诺 Angelo Francesco Lavagnino
◎简  介

  11世纪末,以英、法、德等国组成的十字军策动了第三次东征,大举侵犯阿拉伯地盘。埃及军民在萨拉丁苏丹(即国王)的亲身率领下,奋起抵挡。在亚历山大港一战中,击退了十字军的打击,给十字军以繁重冲击。为了收复圣地耶路撒冷,萨拉丁积极预备,结合阿拉伯列国军队,配合对敌。在赫淀山战争中,萨拉丁派主将阿瓦姆夜袭敌营,摧毁敌军的蓄水罐,引敌下山,采用“火墙战术”,打得十字军屁滚尿流。成果,狂妄自豪的法军首领里诺被俘,并获得了应有的赏罚。                                       
                                    为了实现占有耶路撒冷的野心,法军首领里诺的妻子弗吉尼亚从欧洲请来以英王理查为首的列国援军。十字军凭仗计谋上风向阿克要塞打击,由于阿克城总督自擅自利,卖身投敌,阿拉伯军民虽经苦战,但阿克城终极失守。十字军占据了阿克城,继而又策动了对阿什克伦城的打击,英王理查急于取胜,动用大型战车攻城。萨拉丁面临强敌,临时弃城而走,诱敌于沼泽地带,变被...
  1. Video
  2. ID                                       : 1
  3. Format                                   : AVC
  4. Format/Info                              : Advanced Video Codec
  5. Format profile                           : [email protected]
  6. Format settings                          : CABAC / 3 Ref Frames
  7. Format settings, CABAC                   : Yes
  8. Format settings, Reference frames        : 3 frames
  9. Codec ID                                 : V_MPEG4/ISO/AVC
  10. Duration                                 : 3 h 14 min
  11. Bit rate mode                            : Variable
  12. Bit rate                                 : 5 800 kb/s
  13. Maximum bit rate                         : 8 700 kb/s
  14. Width                                    : 1 920 pixels
  15. Height                                   : 1 080 pixels
  16. Display aspect ratio                     : 16:9
  17. Frame rate mode                          : Constant
  18. Frame rate                               : 24.000 FPS
  19. Color space                              : YUV
  20. Chroma subsampling                       : 4:2:0
  21. Bit depth                                : 8 bits
  22. Scan type                                : Progressive
  23. Bits/(Pixel*Frame)                       : 0.117
  24. Stream size                              : 7.86 GiB (98%)
  25. Writing library                          : x264 core 148 r2722 1b0121b
  26. Encoding settings                        : cabac=1 / ref=3 / deblock=1:0:0 / analyse=0x1:0x111 / me=umh / subme=10 / psy=1 / psy_rd=1.00:0.00 / mixed_ref=1 / me_range=24 / chroma_me=1 / trellis=2 / 8x8dct=0 / cqm=0 / deadzone=21,11 / fast_pskip=1 / chroma_qp_offset=-2 / threads=8 / lookahead_threads=1 / sliced_threads=0 / nr=0 / decimate=1 / interlaced=0 / bluray_compat=0 / stitchable=1 / constrained_intra=0 / bframes=2 / b_pyramid=0 / b_adapt=2 / b_bias=0 / direct=3 / weightb=1 / open_gop=0 / weightp=2 / keyint=250 / keyint_min=24 / scenecut=0 / intra_refresh=0 / rc_lookahead=48 / rc=2pass / mbtree=1 / bitrate=5800 / ratetol=1.0 / qcomp=0.50 / qpmin=6 / qpmax=51 / qpstep=4 / cplxblur=20.0 / qblur=0.5 / vbv_maxrate=8700 / vbv_bufsize=11600 / nal_hrd=vbr / filler=0 / ip_ratio=1.40 / aq=1:1.00
  27. Language                                 : Arabic
  28. Default                                  : Yes
  29. Forced                                   : No
  30. Audio
  31. ID                                       : 2
  32. Format                                   : E-AC-3
  33. Format/Info                              : Enhanced AC-3
  34. Commercial name                          : Dolby Digital Plus
  35. Codec ID                                 : A_EAC3
  36. Duration                                 : 3 h 14 min
  37. Bit rate mode                            : Constant
  38. Bit rate                                 : 128 kb/s
  39. Channel(s)                               : 2 channels
  40. Channel layout                           : L R
  41. Sampling rate                            : 48.0 kHz
  42. Frame rate                               : 31.250 FPS (1536 SPF)
  43. Compression mode                         : Lossy
  44. Stream size                              : 178 MiB (2%)
  45. Language                                 : Arabic
  46. Service kind                             : Complete Main
  47. Default                                  : Yes
  48. Forced                                   : No
  49. Text #1
  50. ID                                       : 3
  51. Format                                   : UTF-8
  52. Codec ID                                 : S_TEXT/UTF8
  53. Codec ID/Info                            : UTF-8 Plain Text
  54. Duration                                 : 3 h 13 min
  55. Bit rate                                 : 45 b/s
  56. Frame rate                               : 0.169 FPS
  57. Count of elements                        : 1958
  58. Stream size                              : 64.4 KiB (0%)
  59. Language                                 : English
  60. Default                                  : No
  61. Forced                                   : No
  62. Text #2
  63. ID                                       : 4
  64. Format                                   : UTF-8
  65. Codec ID                                 : S_TEXT/UTF8
  66. Codec ID/Info                            : UTF-8 Plain Text
  67. Duration                                 : 3 h 13 min
  68. Bit rate                                 : 55 b/s
  69. Frame rate                               : 0.154 FPS
  70. Count of elements                        : 1792
  71. Stream size                              : 78.5 KiB (0%)
  72. Language                                 : French
  73. Default                                  : No
  74. Forced                                   : No
复制代码




                                       
                                       

                                       
                                       
                                       




回复

使用道具 举报

懒得打字嘛,点击右侧快捷回复 【右侧内容,后台自定义】
您需要登录后才可以回帖 登录 | 立即加入

本版积分规则

Archiver|小黑屋| 蓝光电影网 |网站地图

Copyright © 2021 Comsenz Inc. Powered by 蓝光电影网

蓝光电影网

本站内容由用户自主分享和转载自互联网,转载目的在于传递更多信息,并不代表本网赞同其观点和对其真实性负责。

如有侵权、违反国家法律政策行为,请联系我们,我们会第一时间及时清除和处理!

举报反馈邮箱:[email protected]

快速回复 返回顶部 返回列表