找回密码

蓝光电影网

查看: 45|回复: 0

[剧情] 爱情手册 Manual.of.Love.2005.ITALIAN.1080p.WEBRip.x264-VXT 2.10GB

[复制链接]
蓝光币
1084
发表于 2022-12-1 12:36:27 | 显示全部楼层 |阅读模式
[img][/img]

◎标  题 恋爱手册
◎译  名 Manual of Love
◎片  名 Manuale d'amore
◎年  代 2005
◎产  地 意大利
◎类  别 剧情 / 笑剧 / 恋爱
◎语  言 意大利语 / 英语
◎上映日期 2005-03-18
◎IMDb评分 6.4/10 (3610人评价)
◎IMDb链接 https://www.imdb.com/title/tt0417944/
◎豆瓣评分 7.4/10 (1261人评价)
◎豆瓣链接 https://movie.douban.com/subject/1939328/
◎片  长 116 分钟
◎导  演 乔瓦尼·韦罗内西 Giovanni Veronesi
◎编  剧 乌戈·奇蒂 Ugo Chiti
       乔瓦尼·韦罗内西 Giovanni Veronesi
       温琴佐·切拉米 Vincenzo Cerami
◎演  员 卡洛·维尔多内 Carlo Verdone
       西尔维诺·穆奇诺 Silvio Muccino
       赛尔乔·鲁比尼 Sergio Rubini
       达里奥·班迪埃拉 Dario Bandiera
       Giuseppe Gandini Giuseppe Gandini
       Mario Patanè Mario Patanè
       鲁道夫·科萨托 Rodolfo Corsato
       Stefano Sarcinelli Stefano Sarcinelli
       安娜.沃尔斯 Anna Orso
       萨布里娜·因帕恰托雷 Sabrina Impacciatore
       玛格丽塔·布伊 Margherita Buy
       安妮塔·卡皮奥尼 Anita Caprioli
       Luciana Littizzetto Luciana Littizzetto
       杰丝敏·特丽卡 Jasmine Trinca
       迪诺·阿布雷夏 Dino Abbrescia
       Roberto Andreucci Roberto Andreucci
       Elda Alvigini Elda Alvigini
       Michele Di Mauro Michele Di Mauro
       弗朗西斯科·曼德利 Francesco Mandelli
       Maurizio Amati Maurizio Amati
       Aurelio De Laurentiis Aurelio De Laurentiis
       Paolo Buonvino Paolo Buonvino
       Giovanni Canevari Giovanni Canevari
       Claudio Di Mauro Claudio Di Mauro
       Luca Gobbi Luca Gobbi
       Gemma Mascagni Gemma Mascagni
       Massimo Gattabrusi Massimo Gattabrusi
       Giuseppe Squillaci Giuseppe Squillaci
       法布里季奥·皮斯通 Fabrizio Pistone
◎简  介

  影片由四章组成,别离是“相爱”、“危机”、“变节”和“离弃”。四个章节经过四对分歧佳耦展现。第一章中托玛索和古里娅前后履历幽会、初吻、性爱、同居,终极成婚。第二章的芭芭拉和马尔科恋爱数年后堕入“危机”:一个儿子能拯救他们吗?第三章里的欧尔内拉具有一种怪异的奇异气力;最初一章的男仆人公没法面临生射中的悲剧,不能不乞助于书籍常识,而书的名字恰好是“恋爱手册”!                                    
                                本片在2005年意大利电影金像奖(DAVID DI DONATELLO AWARDS)中获得最好男配角、最好女配角奖;及最好摄影、最好打扮设想、最好剪辑、最好电影、最好音乐等10项提名并荣获意大利电影消息记者协会(Italian National Syndicate Of Film Journalists)最好剧本、最好男配角奖;及最好导演等三项提名。
  1. Video
  2. ID                                       : 1
  3. Format                                   : AVC
  4. Format/Info                              : Advanced Video Codec
  5. Format profile                           : [email protected]
  6. Format settings                          : CABAC / 4 Ref Frames
  7. Format settings, CABAC                   : Yes
  8. Format settings, Reference frames        : 4 frames
  9. Codec ID                                 : avc1
  10. Codec ID/Info                            : Advanced Video Coding
  11. Duration                                 : 1 h 50 min
  12. Bit rate                                 : 2 500 kb/s
  13. Width                                    : 1 920 pixels
  14. Height                                   : 1 040 pixels
  15. Display aspect ratio                     : 1.85:1
  16. Frame rate mode                          : Constant
  17. Frame rate                               : 25.000 FPS
  18. Color space                              : YUV
  19. Chroma subsampling                       : 4:2:0
  20. Bit depth                                : 8 bits
  21. Scan type                                : Progressive
  22. Bits/(Pixel*Frame)                       : 0.050
  23. Stream size                              : 1.93 GiB (92%)
  24. Writing library                          : x264 core 152 r2851M ba24899
  25. Encoding settings                        : cabac=1 / ref=4 / deblock=1:-1:-1 / analyse=0x3:0x113 / me=umh / subme=9 / psy=1 / psy_rd=1.00:0.15 / mixed_ref=1 / me_range=24 / chroma_me=1 / trellis=2 / 8x8dct=1 / cqm=0 / deadzone=21,11 / fast_pskip=1 / chroma_qp_offset=-3 / threads=16 / lookahead_threads=4 / sliced_threads=0 / nr=0 / decimate=1 / interlaced=0 / bluray_compat=0 / constrained_intra=0 / bframes=3 / b_pyramid=2 / b_adapt=2 / b_bias=0 / direct=3 / weightb=1 / open_gop=0 / weightp=2 / keyint=250 / keyint_min=25 / scenecut=40 / intra_refresh=0 / rc_lookahead=50 / rc=2pass / mbtree=1 / bitrate=2500 / ratetol=1.0 / qcomp=0.60 / qpmin=0 / qpmax=69 / qpstep=4 / cplxblur=20.0 / qblur=0.5 / vbv_maxrate=31250 / vbv_bufsize=31250 / nal_hrd=none / filler=0 / ip_ratio=1.40 / aq=3:1.00
  26. Encoded date                             : UTC 2022-12-01 03:35:56
  27. Tagged date                              : UTC 2022-12-01 03:35:56
  28. Codec configuration box                  : avcC
  29. Audio
  30. ID                                       : 2
  31. Format                                   : AAC LC
  32. Format/Info                              : Advanced Audio Codec Low Complexity
  33. Codec ID                                 : mp4a-40-2
  34. Duration                                 : 1 h 50 min
  35. Duration_LastFrame                       : -11 ms
  36. Bit rate mode                            : Constant
  37. Bit rate                                 : 224 kb/s
  38. Channel(s)                               : 2 channels
  39. Channel layout                           : L R
  40. Sampling rate                            : 48.0 kHz
  41. Frame rate                               : 46.875 FPS (1024 SPF)
  42. Compression mode                         : Lossy
  43. Stream size                              : 177 MiB (8%)
  44. Language                                 : Italian
  45. Default                                  : Yes
  46. Alternate group                          : 1
  47. Encoded date                             : UTC 2022-12-01 03:35:56
  48. Tagged date                              : UTC 2022-12-01 03:35:56
复制代码




                                       
                                       

                                       
                                       
                                       




回复

使用道具 举报

懒得打字嘛,点击右侧快捷回复 【右侧内容,后台自定义】
您需要登录后才可以回帖 登录 | 立即加入

本版积分规则

Archiver|小黑屋| 蓝光电影网 |网站地图

Copyright © 2021 Comsenz Inc. Powered by 蓝光电影网

蓝光电影网

本站内容由用户自主分享和转载自互联网,转载目的在于传递更多信息,并不代表本网赞同其观点和对其真实性负责。

如有侵权、违反国家法律政策行为,请联系我们,我们会第一时间及时清除和处理!

举报反馈邮箱:[email protected]

快速回复 返回顶部 返回列表