找回密码

蓝光电影网

查看: 622|回复: 33

[UHD.HEVC] 复仇者联盟2:奥创纪元 Avengers.Age.Of.Ultron.2015.PROPER.2160p.BluRay.REMUX.HEVC.DTS-HD.MA.TrueHD.7.1.Atmos-FGT 54.73GB

[复制链接]
蓝光币
1084
发表于 2022-12-13 08:29:55 | 显示全部楼层 |阅读模式
[img][/img]

◎标  题 复仇者同盟2:奥创纪元
◎译  名 复仇者同盟2 / 复仇者同盟:奥创时代 / 复仇者同盟:奥创年月 / 复联2 / 妇联2(豆友译名) / Marvel Avengers: Age of Ultron / The Avengers 2 / After Party
◎片  名 Avengers: Age of Ultron
◎年  代 2015
◎产  地 美国
◎类  别 行动 / 科幻 / 奇异 / 冒险
◎语  言 英语 / 韩语
◎上映日期 2015-05-12(中国大陆) / 2015-05-01(美国)
◎IMDb评分 7.3/10 (833284人评价)
◎IMDb链接 https://www.imdb.com/title/tt2395427/
◎豆瓣评分 7.5/10 (473493人评价)
◎豆瓣链接 https://movie.douban.com/subject/10741834/
◎片  长 142分钟
◎导  演 乔斯·韦登 Joss Whedon
◎编  剧 乔斯·韦登 Joss Whedon
       斯坦·李 Stan Lee
       杰克·科比 Jack Kirby
◎演  员 小罗伯特·唐尼 Robert Downey Jr.
       克里斯·海姆斯沃斯 Chris Hemsworth
       马克·鲁弗洛 Mark Ruffalo
       克里斯·埃文斯 Chris Evans
       斯嘉丽·约翰逊 Scarlett Johansson
       杰瑞米·雷纳 Jeremy Renner
       詹姆斯·斯派德 James Spader
       塞缪尔·杰克逊 Samuel L. Jackson
       唐·钱德尔 Don Cheadle
       亚伦·泰勒-约翰逊 Aaron Taylor-Johnson
       伊丽莎白·奥尔森 Elizabeth Olsen
       保罗·贝坦尼 Paul Bettany
       寇碧·史莫德斯 Cobie Smulders
       安东尼·麦凯 Anthony Mackie
       海莉·阿特维尔 Hayley Atwell
       伊德里斯·艾尔巴 Idris Elba
       斯特兰·斯卡斯加德 Stellan Skarsgård
       金秀贤 Soo-hyun Kim
       托马斯·克莱舒曼 Thomas Kretschmann
       安迪·瑟金斯 Andy Serkis
       朱莉·德尔佩 Julie Delpy
       斯坦·李 Stan Lee
       亨利·古德曼 Henry Goodman
       多米尼克·普罗沃斯特-切克利 Dominique Provost-Chalkley
       艾萨克·安德鲁斯 Isaac Andrews
       英维尔德·黛拉 Ingvild Deila
       亚伦·希梅尔斯坦 Aaron Himelstein
       曼德拉·加杜卡 Mandla Gaduka
       费伊·塞维尔 Faye Sewell
       张磊 Lei Zhang
       凯瑞·康顿 Kerry Condon
       朱利安·布里奇 Julian Bleach
       乔什·布洛林 Josh Brolin
       B·J·布里特 B.J. Britt
       王丽雅 Leila Wong
       琳达·卡德里尼 Linda Cardellini
       蒂姆·鲍威尔 Tim Powell
       宾利·卡鲁 Bentley Kalu
       朱莉娅·卡瑞内克 Julia Krynke
       汉娜·弗林 Hannah Flynn
       丹尼尔·韦斯特伍德 Daniel Westwood
       尼克·W·尼克尔森 Nick W. Nicholson
       玛瑞沃拉·嘉沃斯卡 Mariola Jaworska
       卢·弗里基诺 Lou Ferrigno
       乔恩·费儒 Jon Favreau
       凯文·费奇 Kevin Feige
       李芝胜 Ji-seung Lee
       路易斯·德·埃斯波西托 Louis D'Esposito
       布莱恩·泰勒 Brian Tyler
       丹尼·艾夫曼 Danny Elfman
       本·戴维斯 Ben Davis
       艾伦 A. 安彭 Allan A. Apone
       迈克尔·狄龙 Michael Dillon
       托马斯·尼特曼 Thomas Nittmann
       丹尼·冈萨雷斯 Danny Gonzalez
       布莱恩·J·阿尔瓦雷斯 Brian J. Alvarez
       保罗·阿克里 Paolo Acri
       拉斐尔·皮门特尔 Raphael A. Pimentel
       迈克尔·弗里德曼 Michael Freedman
       杰西卡卡林顿 Jessica Carrington
       魯伊德加多 Ruy Delgado
       伊万·雅格布斯 Evan Jacobs
       雷妮·莫尼梅克 Renae Moneymaker
       珊妮·姚 Sunny Yeo
       布赖恩·希契 Bryan Hitch
◎简  介

  托尼·斯塔克(小罗伯特·唐尼 Robert Downey Jr. 饰)试图重启一个已经烧毁的维和项目,不意该项目却成为危机导火索。世上最强大的超级豪杰——钢铁侠、美国队长(克里斯·埃文斯 Chris Evans 饰)、雷神(克里斯·海姆斯沃斯 Chris Hemsworth 饰)、绿伟人(马克·鲁弗洛 Mark Ruffalo 饰)、黑孀妇(斯嘉丽·约翰逊 Scarlett Johansson 饰)和鹰眼(杰瑞米·雷纳 Jeremy Renner 饰),不能不接管终极考验,拯救危在旦夕的地球。奥秘反派奥创(詹姆斯·斯派德 James Spader 配音)逐步突起,超级豪杰们必须重新集结,极力阻止奥创实施人类灭绝计划。战役中,复仇者同盟成员们还碰到了两个新人物——旺达·马克西莫夫(伊丽莎白·奥尔森 Elizabeth Olsen 饰)和皮特罗·马克西莫...
  1. Video
  2. ID                                       : 1
  3. ID in the original source medium         : 4113 (0x1011)
  4. Format                                   : HEVC
  5. Format/Info                              : High Efficiency Video Coding
  6. Format profile                           : Main [email protected]@High
  7. HDR format                               : SMPTE ST 2086, HDR10 compatible
  8. Codec ID                                 : V_MPEGH/ISO/HEVC
  9. Duration                                 : 2 h 21 min
  10. Bit rate                                 : 43.1 Mb/s
  11. Width                                    : 3 840 pixels
  12. Height                                   : 2 160 pixels
  13. Display aspect ratio                     : 16:9
  14. Frame rate mode                          : Constant
  15. Frame rate                               : 23.976 (24000/1001/189150) FPS
  16. Color space                              : YUV
  17. Chroma subsampling                       : 4:2:0 (Type 2)
  18. Bit depth                                : 10 bits
  19. Bits/(Pixel*Frame)                       : 0.217
  20. Stream size                              : 42.5 GiB (78%)
  21. Language                                 : English
  22. Default                                  : No
  23. Forced                                   : No
  24. Color range                              : Limited
  25. Color primaries                          : BT.2020
  26. Transfer characteristics                 : PQ
  27. Matrix coefficients                      : BT.2020 non-constant
  28. Mastering display color primaries        : Display P3
  29. Mastering display luminance              : min: 0.0001 cd/m2, max: 1000 cd/m2
  30. Original source medium                   : Blu-ray
  31. Audio #1
  32. ID                                       : 2
  33. ID in the original source medium         : 4352 (0x1100)
  34. Format                                   : MLP FBA 16-ch
  35. Format/Info                              : Meridian Lossless Packing FBA with 16-channel presentation
  36. Commercial name                          : Dolby TrueHD with Dolby Atmos
  37. Codec ID                                 : A_TRUEHD
  38. Duration                                 : 2 h 21 min
  39. Bit rate mode                            : Variable
  40. Bit rate                                 : 4 631 kb/s
  41. Maximum bit rate                         : 6 390 kb/s
  42. Channel(s)                               : 8 channels
  43. Channel layout                           : L R C LFE Ls Rs Lb Rb
  44. Sampling rate                            : 48.0 kHz
  45. Frame rate                               : 1 200.000 FPS (40 SPF)
  46. Bit depth                                : 24 bits
  47. Compression mode                         : Lossless
  48. Stream size                              : 4.57 GiB (8%)
  49. Title                                    : Surround 7.1
  50. Language                                 : English
  51. Default                                  : Yes
  52. Forced                                   : No
  53. Original source medium                   : Blu-ray
  54. Number of dynamic objects                : 13
  55. Bed channel count                        : 1 channel
  56. Bed channel configuration                : LFE
  57. Audio #2
  58. ID                                       : 3
  59. Format                                   : DTS XLL
  60. Format/Info                              : Digital Theater Systems
  61. Commercial name                          : DTS-HD Master Audio
  62. Codec ID                                 : A_DTS
  63. Duration                                 : 2 h 21 min
  64. Bit rate mode                            : Variable
  65. Bit rate                                 : 3 939 kb/s
  66. Channel(s)                               : 8 channels
  67. Channel layout                           : C L R LFE Lb Rb Lss Rss
  68. Sampling rate                            : 48.0 kHz
  69. Frame rate                               : 93.750 FPS (512 SPF)
  70. Bit depth                                : 24 bits
  71. Compression mode                         : Lossless
  72. Stream size                              : 3.89 GiB (7%)
  73. Title                                    : DTS-HD MA 7.1
  74. Language                                 : English
  75. Default                                  : No
  76. Forced                                   : No
  77. Audio #3
  78. ID                                       : 4
  79. ID in the original source medium         : 4352 (0x1100)
  80. Format                                   : AC-3
  81. Format/Info                              : Audio Coding 3
  82. Commercial name                          : Dolby Digital
  83. Codec ID                                 : A_AC3
  84. Duration                                 : 2 h 21 min
  85. Bit rate mode                            : Constant
  86. Bit rate                                 : 640 kb/s
  87. Channel(s)                               : 6 channels
  88. Channel layout                           : L R C LFE Ls Rs
  89. Sampling rate                            : 48.0 kHz
  90. Frame rate                               : 31.250 FPS (1536 SPF)
  91. Compression mode                         : Lossy
  92. Stream size                              : 647 MiB (1%)
  93. Title                                    : DD 5.1
  94. Language                                 : English
  95. Service kind                             : Complete Main
  96. Default                                  : No
  97. Forced                                   : No
  98. Original source medium                   : Blu-ray
  99. Audio #4
  100. ID                                       : 5
  101. ID in the original source medium         : 4353 (0x1101)
  102. Format                                   : AC-3
  103. Format/Info                              : Audio Coding 3
  104. Commercial name                          : Dolby Digital
  105. Codec ID                                 : A_AC3
  106. Duration                                 : 2 h 21 min
  107. Bit rate mode                            : Constant
  108. Bit rate                                 : 320 kb/s
  109. Channel(s)                               : 2 channels
  110. Channel layout                           : L R
  111. Sampling rate                            : 48.0 kHz
  112. Frame rate                               : 31.250 FPS (1536 SPF)
  113. Compression mode                         : Lossy
  114. Stream size                              : 323 MiB (0%)
  115. Title                                    : DD 2.0
  116. Language                                 : English
  117. Service kind                             : Complete Main
  118. Default                                  : No
  119. Forced                                   : No
  120. Original source medium                   : Blu-ray
  121. Audio #5
  122. ID                                       : 6
  123. ID in the original source medium         : 4354 (0x1102)
  124. Format                                   : AC-3
  125. Format/Info                              : Audio Coding 3
  126. Commercial name                          : Dolby Digital
  127. Codec ID                                 : A_AC3
  128. Duration                                 : 2 h 21 min
  129. Bit rate mode                            : Constant
  130. Bit rate                                 : 640 kb/s
  131. Channel(s)                               : 6 channels
  132. Channel layout                           : L R C LFE Ls Rs
  133. Sampling rate                            : 48.0 kHz
  134. Frame rate                               : 31.250 FPS (1536 SPF)
  135. Compression mode                         : Lossy
  136. Stream size                              : 647 MiB (1%)
  137. Title                                    : DD 5.1
  138. Language                                 : French
  139. Service kind                             : Complete Main
  140. Default                                  : No
  141. Forced                                   : No
  142. Original source medium                   : Blu-ray
  143. Audio #6
  144. ID                                       : 7
  145. Format                                   : E-AC-3
  146. Format/Info                              : Enhanced AC-3
  147. Commercial name                          : Dolby Digital Plus
  148. Format profile                           : Blu-ray Disc
  149. Codec ID                                 : A_EAC3
  150. Duration                                 : 2 h 21 min
  151. Bit rate mode                            : Constant
  152. Bit rate                                 : 1 024 kb/s
  153. Channel(s)                               : 8 channels
  154. Channel layout                           : L R C LFE Ls Rs Lb Rb
  155. Sampling rate                            : 48.0 kHz
  156. Frame rate                               : 31.250 FPS (1536 SPF)
  157. Compression mode                         : Lossy
  158. Stream size                              : 1.01 GiB (2%)
  159. Title                                    : DDP 7.1
  160. Language                                 : Spanish
  161. Service kind                             : Complete Main
  162. Default                                  : No
  163. Forced                                   : No
  164. Audio #7
  165. ID                                       : 8
  166. Format                                   : E-AC-3
  167. Format/Info                              : Enhanced AC-3
  168. Commercial name                          : Dolby Digital Plus
  169. Format profile                           : Blu-ray Disc
  170. Codec ID                                 : A_EAC3
  171. Duration                                 : 2 h 21 min
  172. Bit rate mode                            : Constant
  173. Bit rate                                 : 1 024 kb/s
  174. Channel(s)                               : 8 channels
  175. Channel layout                           : L R C LFE Ls Rs Lb Rb
  176. Sampling rate                            : 48.0 kHz
  177. Frame rate                               : 31.250 FPS (1536 SPF)
  178. Compression mode                         : Lossy
  179. Stream size                              : 1.01 GiB (2%)
  180. Title                                    : DDP 7.1
  181. Language                                 : Japanese
  182. Service kind                             : Complete Main
  183. Default                                  : No
  184. Forced                                   : No
  185. Text #1
  186. ID                                       : 9
  187. Format                                   : UTF-8
  188. Codec ID                                 : S_TEXT/UTF8
  189. Codec ID/Info                            : UTF-8 Plain Text
  190. Duration                                 : 2 h 12 min
  191. Bit rate                                 : 57 b/s
  192. Frame rate                               : 0.235 FPS
  193. Count of elements                        : 1870
  194. Stream size                              : 55.5 KiB (0%)
  195. Language                                 : English
  196. Default                                  : Yes
  197. Forced                                   : No
  198. Text #2
  199. ID                                       : 10
  200. Format                                   : UTF-8
  201. Codec ID                                 : S_TEXT/UTF8
  202. Codec ID/Info                            : UTF-8 Plain Text
  203. Duration                                 : 2 h 12 min
  204. Bit rate                                 : 61 b/s
  205. Frame rate                               : 0.269 FPS
  206. Count of elements                        : 2144
  207. Stream size                              : 60.0 KiB (0%)
  208. Title                                    : SDH
  209. Language                                 : English
  210. Default                                  : No
  211. Forced                                   : No
  212. Text #3
  213. ID                                       : 11
  214. ID in the original source medium         : 4768 (0x12A0)
  215. Format                                   : PGS
  216. Muxing mode                              : zlib
  217. Codec ID                                 : S_HDMV/PGS
  218. Codec ID/Info                            : Picture based subtitle format used on BDs/HD-DVDs
  219. Duration                                 : 2 h 12 min
  220. Bit rate                                 : 40.6 kb/s
  221. Frame rate                               : 0.541 FPS
  222. Count of elements                        : 4314
  223. Stream size                              : 38.6 MiB (0%)
  224. Language                                 : English
  225. Default                                  : No
  226. Forced                                   : No
  227. Original source medium                   : Blu-ray
  228. Text #4
  229. ID                                       : 12
  230. ID in the original source medium         : 4769 (0x12A1)
  231. Format                                   : PGS
  232. Muxing mode                              : zlib
  233. Codec ID                                 : S_HDMV/PGS
  234. Codec ID/Info                            : Picture based subtitle format used on BDs/HD-DVDs
  235. Duration                                 : 2 h 20 min
  236. Bit rate                                 : 34.0 kb/s
  237. Frame rate                               : 0.447 FPS
  238. Count of elements                        : 3768
  239. Stream size                              : 34.2 MiB (0%)
  240. Language                                 : French
  241. Default                                  : No
  242. Forced                                   : No
  243. Original source medium                   : Blu-ray
  244. Text #5
  245. ID                                       : 13
  246. ID in the original source medium         : 4770 (0x12A2)
  247. Format                                   : PGS
  248. Muxing mode                              : zlib
  249. Codec ID                                 : S_HDMV/PGS
  250. Codec ID/Info                            : Picture based subtitle format used on BDs/HD-DVDs
  251. Duration                                 : 2 h 20 min
  252. Bit rate                                 : 32.3 kb/s
  253. Frame rate                               : 0.446 FPS
  254. Count of elements                        : 3756
  255. Stream size                              : 32.4 MiB (0%)
  256. Language                                 : Spanish
  257. Default                                  : No
  258. Forced                                   : No
  259. Original source medium                   : Blu-ray
  260. Text #6
  261. ID                                       : 14
  262. ID in the original source medium         : 4771 (0x12A3)
  263. Format                                   : PGS
  264. Muxing mode                              : zlib
  265. Codec ID                                 : S_HDMV/PGS
  266. Codec ID/Info                            : Picture based subtitle format used on BDs/HD-DVDs
  267. Duration                                 : 2 h 20 min
  268. Bit rate                                 : 22.9 kb/s
  269. Frame rate                               : 0.397 FPS
  270. Count of elements                        : 3346
  271. Stream size                              : 23.0 MiB (0%)
  272. Language                                 : Japanese
  273. Default                                  : No
  274. Forced                                   : No
  275. Original source medium                   : Blu-ray
  276. Text #7
  277. ID                                       : 15
  278. ID in the original source medium         : 4772 (0x12A4)
  279. Format                                   : PGS
  280. Muxing mode                              : zlib
  281. Codec ID                                 : S_HDMV/PGS
  282. Codec ID/Info                            : Picture based subtitle format used on BDs/HD-DVDs
  283. Duration                                 : 2 h 20 min
  284. Bit rate                                 : 20.9 kb/s
  285. Frame rate                               : 0.447 FPS
  286. Count of elements                        : 3762
  287. Stream size                              : 21.0 MiB (0%)
  288. Language                                 : Chinese
  289. Default                                  : No
  290. Forced                                   : No
  291. Original source medium                   : Blu-ray
  292. Text #8
  293. ID                                       : 16
  294. ID in the original source medium         : 4773 (0x12A5)
  295. Format                                   : PGS
  296. Muxing mode                              : zlib
  297. Codec ID                                 : S_HDMV/PGS
  298. Codec ID/Info                            : Picture based subtitle format used on BDs/HD-DVDs
  299. Duration                                 : 2 h 20 min
  300. Bit rate                                 : 18.6 kb/s
  301. Frame rate                               : 0.447 FPS
  302. Count of elements                        : 3766
  303. Stream size                              : 18.7 MiB (0%)
  304. Language                                 : Korean
  305. Default                                  : No
  306. Forced                                   : No
  307. Original source medium                   : Blu-ray
  308. Text #9
  309. ID                                       : 17
  310. ID in the original source medium         : 4774 (0x12A6)
  311. Format                                   : PGS
  312. Muxing mode                              : zlib
  313. Codec ID                                 : S_HDMV/PGS
  314. Codec ID/Info                            : Picture based subtitle format used on BDs/HD-DVDs
  315. Duration                                 : 2 h 20 min
  316. Bit rate                                 : 23.5 kb/s
  317. Frame rate                               : 0.455 FPS
  318. Count of elements                        : 3830
  319. Stream size                              : 23.6 MiB (0%)
  320. Language                                 : Chinese
  321. Default                                  : No
  322. Forced                                   : No
  323. Original source medium                   : Blu-ray
  324. Text #10
  325. ID                                       : 18
  326. ID in the original source medium         : 4775 (0x12A7)
  327. Format                                   : PGS
  328. Muxing mode                              : zlib
  329. Codec ID                                 : S_HDMV/PGS
  330. Codec ID/Info                            : Picture based subtitle format used on BDs/HD-DVDs
  331. Duration                                 : 2 h 18 min
  332. Bit rate                                 : 316 b/s
  333. Frame rate                               : 0.003 FPS
  334. Count of elements                        : 26
  335. Stream size                              : 321 KiB (0%)
  336. Title                                    : FORCED
  337. Language                                 : French
  338. Default                                  : No
  339. Forced                                   : No
  340. Original source medium                   : Blu-ray
  341. Text #11
  342. ID                                       : 19
  343. ID in the original source medium         : 4776 (0x12A8)
  344. Format                                   : PGS
  345. Muxing mode                              : zlib
  346. Codec ID                                 : S_HDMV/PGS
  347. Codec ID/Info                            : Picture based subtitle format used on BDs/HD-DVDs
  348. Duration                                 : 2 h 18 min
  349. Bit rate                                 : 226 b/s
  350. Frame rate                               : 0.002 FPS
  351. Count of elements                        : 20
  352. Stream size                              : 229 KiB (0%)
  353. Title                                    : FORCED
  354. Language                                 : Spanish
  355. Default                                  : No
  356. Forced                                   : No
  357. Original source medium                   : Blu-ray
  358. Text #12
  359. ID                                       : 20
  360. ID in the original source medium         : 4777 (0x12A9)
  361. Format                                   : PGS
  362. Muxing mode                              : zlib
  363. Codec ID                                 : S_HDMV/PGS
  364. Codec ID/Info                            : Picture based subtitle format used on BDs/HD-DVDs
  365. Duration                                 : 2 h 18 min
  366. Bit rate                                 : 173 b/s
  367. Frame rate                               : 0.002 FPS
  368. Count of elements                        : 20
  369. Stream size                              : 176 KiB (0%)
  370. Title                                    : FORCED
  371. Language                                 : Japanese
  372. Default                                  : No
  373. Forced                                   : No
  374. Original source medium                   : Blu-ray
  375. Menu
  376. 00:00:00.000                             : en:Chapter 01
  377. 00:12:15.109                             : en:Chapter 02
  378. 00:21:23.949                             : en:Chapter 03
  379. 00:33:01.771                             : en:Chapter 04
  380. 00:36:07.498                             : en:Chapter 05
  381. 00:42:00.768                             : en:Chapter 06
  382. 00:52:44.619                             : en:Chapter 07
  383. 00:59:01.871                             : en:Chapter 08
  384. 01:15:51.088                             : en:Chapter 09
  385. 01:27:08.223                             : en:Chapter 10
  386. 01:36:44.757                             : en:Chapter 11
  387. 01:54:35.326                             : en:Chapter 12
  388. 02:06:27.413                             : en:Chapter 13
  389. 02:11:08.026                             : en:Chapter 14
复制代码




                                       
                                       

                                       
                                       
                                       




复仇者同盟2:奥创纪元 Avengers.Age.Of.Ultron.2015.PROPER.2160p.BluRay.REMUX.HEVC.DTS-HD.MA.TrueHD.7.1.Atmos-FGT 54.73GB

Avengers.Age.Of.Ultron.2015.PROPER.2160p.BluRay.REMUX.HEVC.DTS-HD.MA.TrueHD.7.1..torrent

69.11 KB, 下载次数: 100, 下载积分: 蓝光币 -2

回复

使用道具 举报

蓝光币
259
发表于 2022-12-13 08:57:10 | 显示全部楼层

这个帖子不回对不起自己!我想我是一天也不能离开蓝光电影网。
回复 支持 反对

使用道具 举报

蓝光币
271
发表于 2022-12-13 09:43:21 | 显示全部楼层
这部电影好看
回复 支持 反对

使用道具 举报

蓝光币
11
发表于 2022-12-13 10:06:46 | 显示全部楼层
这部电影好看
回复 支持 反对

使用道具 举报

蓝光币
94
发表于 2022-12-13 10:14:25 | 显示全部楼层
顶楼主辛苦发帖,伴着蓝光电影网成长
回复 支持 反对

使用道具 举报

蓝光币
123
发表于 2022-12-13 10:21:02 | 显示全部楼层

楼主太厉害了!楼主,电影应该很好看我觉得蓝光电影网真是个好地方!
回复 支持 反对

使用道具 举报

蓝光币
91
发表于 2022-12-13 10:38:58 | 显示全部楼层

楼主太厉害了!楼主,电影应该很好看我觉得蓝光电影网真是个好地方!
回复 支持 反对

使用道具 举报

蓝光币
187
发表于 2022-12-13 13:56:24 | 显示全部楼层

这个帖子不回对不起自己!我想我是一天也不能离开蓝光电影网。
回复 支持 反对

使用道具 举报

蓝光币
40
发表于 2022-12-13 15:09:50 | 显示全部楼层

我看不错噢 谢谢楼主!蓝光电影网越来越好!
回复 支持 反对

使用道具 举报

蓝光币
59
发表于 2022-12-13 15:59:05 | 显示全部楼层
感谢分享
回复

使用道具 举报

懒得打字嘛,点击右侧快捷回复 【右侧内容,后台自定义】
您需要登录后才可以回帖 登录 | 立即加入

本版积分规则

Archiver|小黑屋| 蓝光电影网 |网站地图

Copyright © 2021 Comsenz Inc. Powered by 蓝光电影网

蓝光电影网

本站内容由用户自主分享和转载自互联网,转载目的在于传递更多信息,并不代表本网赞同其观点和对其真实性负责。

如有侵权、违反国家法律政策行为,请联系我们,我们会第一时间及时清除和处理!

举报反馈邮箱:[email protected]

快速回复 返回顶部 返回列表