找回密码

蓝光电影网

查看: 1189|回复: 72

[UHD.HEVC] 哥斯拉 Godzilla.1998.PROPER.2160p.BluRay.REMUX.HEVC.DTS-HD.MA.TrueHD.7.1.Atmos-FGT 72.35GB

  [复制链接]
蓝光币
1084
发表于 2022-12-21 22:51:03 | 显示全部楼层 |阅读模式
[img][/img]

◎标  题 哥斯拉
◎译  名 酷斯拉(台) / 怪兽哥斯拉
◎片  名 Godzilla
◎年  代 1998
◎产  地 美国 / 日本
◎类  别 行动 / 科幻 / 冒险 / 灾难
◎语  言 英语 / 法语 / 日语 / 俄语 / 西班牙语
◎上映日期 1998-05-20
◎IMDb评分 5.4/10 (188923人评价)
◎IMDb链接 https://www.imdb.com/title/tt0120685/
◎豆瓣链接 https://movie.douban.com/subject/1295292/
◎片  长 139 分钟
◎标  签 科幻 / 灾难 / 美国 / 哥斯拉 / 美国电影 / 1998 / 行动 / 怪兽
◎简  介

    此日,美国纽约四周出现了一些异常现象:承平洋上的海浪速度超乎平常地惊人、巴哈马庞大的原始森林里居然出现了一个类似恐龙脚印的庞大痕迹、动物们都惊慌失措,恍如一股庞大的气力正向纽约囊括而来。                                                                      本来,天下上频仍的核实验引发的核辐射致使了天气异常和终极致使岛上蜥蜴变异。现在,它正以越来越快的步伐向纽约逼近。这下,一切的人都慌了神,美国全国的一切气力都结合了起来,目标只要一个,就是在它踏入纽约前将它干掉!
  1. Video
  2. ID                                       : 1
  3. ID in the original source medium         : 4113 (0x1011)
  4. Format                                   : HEVC
  5. Format/Info                              : High Efficiency Video Coding
  6. Format profile                           : Main [email protected]@High
  7. HDR format                               : SMPTE ST 2086, HDR10 compatible
  8. Codec ID                                 : V_MPEGH/ISO/HEVC
  9. Duration                                 : 2 h 18 min
  10. Bit rate                                 : 50.0 Mb/s
  11. Width                                    : 3 840 pixels
  12. Height                                   : 2 160 pixels
  13. Display aspect ratio                     : 16:9
  14. Frame rate mode                          : Constant
  15. Frame rate                               : 23.976 (24000/1001/189150) FPS
  16. Color space                              : YUV
  17. Chroma subsampling                       : 4:2:0 (Type 2)
  18. Bit depth                                : 10 bits
  19. Bits/(Pixel*Frame)                       : 0.252
  20. Stream size                              : 48.5 GiB (67%)
  21. Language                                 : English
  22. Default                                  : No
  23. Forced                                   : No
  24. Color range                              : Limited
  25. Color primaries                          : BT.2020
  26. Transfer characteristics                 : PQ
  27. Matrix coefficients                      : BT.2020 non-constant
  28. Mastering display color primaries        : Display P3
  29. Mastering display luminance              : min: 0.0050 cd/m2, max: 4000 cd/m2
  30. Maximum Content Light Level              : 10000 cd/m2
  31. Maximum Frame-Average Light Level        : 768 cd/m2
  32. Original source medium                   : Blu-ray
  33. Audio #1
  34. ID                                       : 2
  35. ID in the original source medium         : 4352 (0x1100)
  36. Format                                   : MLP FBA 16-ch
  37. Format/Info                              : Meridian Lossless Packing FBA with 16-channel presentation
  38. Commercial name                          : Dolby TrueHD with Dolby Atmos
  39. Codec ID                                 : A_TRUEHD
  40. Duration                                 : 2 h 18 min
  41. Bit rate mode                            : Variable
  42. Bit rate                                 : 4 138 kb/s
  43. Maximum bit rate                         : 6 384 kb/s
  44. Channel(s)                               : 8 channels
  45. Channel layout                           : L R C LFE Ls Rs Lb Rb
  46. Sampling rate                            : 48.0 kHz
  47. Frame rate                               : 1 200.000 FPS (40 SPF)
  48. Bit depth                                : 24 bits
  49. Compression mode                         : Lossless
  50. Stream size                              : 4.01 GiB (6%)
  51. Title                                    : TrueHD 7.1 Atmos
  52. Language                                 : English
  53. Default                                  : Yes
  54. Forced                                   : No
  55. Original source medium                   : Blu-ray
  56. Number of dynamic objects                : 11
  57. Bed channel count                        : 1 channel
  58. Bed channel configuration                : LFE
  59. Audio #2
  60. ID                                       : 3
  61. Format                                   : DTS XLL
  62. Format/Info                              : Digital Theater Systems
  63. Commercial name                          : DTS-HD Master Audio
  64. Codec ID                                 : A_DTS
  65. Duration                                 : 2 h 18 min
  66. Bit rate mode                            : Variable
  67. Bit rate                                 : 4 171 kb/s
  68. Channel(s)                               : 8 channels
  69. Channel layout                           : C L R LFE Lb Rb Lss Rss
  70. Sampling rate                            : 48.0 kHz
  71. Frame rate                               : 93.750 FPS (512 SPF)
  72. Bit depth                                : 24 bits
  73. Compression mode                         : Lossless
  74. Stream size                              : 4.04 GiB (6%)
  75. Title                                    : DTS-HD MA 7.1
  76. Language                                 : English
  77. Default                                  : No
  78. Forced                                   : No
  79. Audio #3
  80. ID                                       : 4
  81. ID in the original source medium         : 4352 (0x1100)
  82. Format                                   : AC-3
  83. Format/Info                              : Audio Coding 3
  84. Commercial name                          : Dolby Digital
  85. Codec ID                                 : A_AC3
  86. Duration                                 : 2 h 18 min
  87. Bit rate mode                            : Constant
  88. Bit rate                                 : 640 kb/s
  89. Channel(s)                               : 6 channels
  90. Channel layout                           : L R C LFE Ls Rs
  91. Sampling rate                            : 48.0 kHz
  92. Frame rate                               : 31.250 FPS (1536 SPF)
  93. Compression mode                         : Lossy
  94. Stream size                              : 635 MiB (1%)
  95. Title                                    : DD 5.1
  96. Language                                 : English
  97. Service kind                             : Complete Main
  98. Default                                  : No
  99. Forced                                   : No
  100. Original source medium                   : Blu-ray
  101. Audio #4
  102. ID                                       : 5
  103. ID in the original source medium         : 4354 (0x1102)
  104. Format                                   : AC-3
  105. Format/Info                              : Audio Coding 3
  106. Commercial name                          : Dolby Digital
  107. Codec ID                                 : A_AC3
  108. Duration                                 : 2 h 18 min
  109. Bit rate mode                            : Constant
  110. Bit rate                                 : 640 kb/s
  111. Channel(s)                               : 6 channels
  112. Channel layout                           : L R C LFE Ls Rs
  113. Sampling rate                            : 48.0 kHz
  114. Frame rate                               : 31.250 FPS (1536 SPF)
  115. Compression mode                         : Lossy
  116. Stream size                              : 635 MiB (1%)
  117. Title                                    : DD 5.1
  118. Language                                 : Czech
  119. Service kind                             : Complete Main
  120. Default                                  : No
  121. Forced                                   : No
  122. Original source medium                   : Blu-ray
  123. Audio #5
  124. ID                                       : 6
  125. ID in the original source medium         : 4355 (0x1103)
  126. Format                                   : DTS XLL
  127. Format/Info                              : Digital Theater Systems
  128. Commercial name                          : DTS-HD Master Audio
  129. Codec ID                                 : A_DTS
  130. Duration                                 : 2 h 18 min
  131. Bit rate mode                            : Variable
  132. Bit rate                                 : 2 563 kb/s
  133. Channel(s)                               : 6 channels
  134. Channel layout                           : C L R Ls Rs LFE
  135. Sampling rate                            : 48.0 kHz
  136. Frame rate                               : 93.750 FPS (512 SPF)
  137. Bit depth                                : 16 bits
  138. Compression mode                         : Lossless
  139. Stream size                              : 2.48 GiB (3%)
  140. Title                                    : DTS-HD MA 5.1
  141. Language                                 : French
  142. Default                                  : No
  143. Forced                                   : No
  144. Original source medium                   : Blu-ray
  145. Audio #6
  146. ID                                       : 7
  147. ID in the original source medium         : 4356 (0x1104)
  148. Format                                   : AC-3
  149. Format/Info                              : Audio Coding 3
  150. Commercial name                          : Dolby Digital
  151. Codec ID                                 : A_AC3
  152. Duration                                 : 2 h 18 min
  153. Bit rate mode                            : Constant
  154. Bit rate                                 : 640 kb/s
  155. Channel(s)                               : 6 channels
  156. Channel layout                           : L R C LFE Ls Rs
  157. Sampling rate                            : 48.0 kHz
  158. Frame rate                               : 31.250 FPS (1536 SPF)
  159. Compression mode                         : Lossy
  160. Stream size                              : 635 MiB (1%)
  161. Title                                    : DD 5.1
  162. Language                                 : French
  163. Service kind                             : Complete Main
  164. Default                                  : No
  165. Forced                                   : No
  166. Original source medium                   : Blu-ray
  167. Audio #7
  168. ID                                       : 8
  169. ID in the original source medium         : 4357 (0x1105)
  170. Format                                   : DTS XLL
  171. Format/Info                              : Digital Theater Systems
  172. Commercial name                          : DTS-HD Master Audio
  173. Codec ID                                 : A_DTS
  174. Duration                                 : 2 h 18 min
  175. Bit rate mode                            : Variable
  176. Bit rate                                 : 2 590 kb/s
  177. Channel(s)                               : 6 channels
  178. Channel layout                           : C L R Ls Rs LFE
  179. Sampling rate                            : 48.0 kHz
  180. Frame rate                               : 93.750 FPS (512 SPF)
  181. Bit depth                                : 16 bits
  182. Compression mode                         : Lossless
  183. Stream size                              : 2.51 GiB (3%)
  184. Title                                    : DTS-HD MA 5.1
  185. Language                                 : German
  186. Default                                  : No
  187. Forced                                   : No
  188. Original source medium                   : Blu-ray
  189. Audio #8
  190. ID                                       : 9
  191. ID in the original source medium         : 4358 (0x1106)
  192. Format                                   : AC-3
  193. Format/Info                              : Audio Coding 3
  194. Commercial name                          : Dolby Digital
  195. Codec ID                                 : A_AC3
  196. Duration                                 : 2 h 18 min
  197. Bit rate mode                            : Constant
  198. Bit rate                                 : 640 kb/s
  199. Channel(s)                               : 6 channels
  200. Channel layout                           : L R C LFE Ls Rs
  201. Sampling rate                            : 48.0 kHz
  202. Frame rate                               : 31.250 FPS (1536 SPF)
  203. Compression mode                         : Lossy
  204. Stream size                              : 635 MiB (1%)
  205. Title                                    : DD 5.1
  206. Language                                 : Hindi
  207. Service kind                             : Complete Main
  208. Default                                  : No
  209. Forced                                   : No
  210. Original source medium                   : Blu-ray
  211. Audio #9
  212. ID                                       : 10
  213. ID in the original source medium         : 4359 (0x1107)
  214. Format                                   : AC-3
  215. Format/Info                              : Audio Coding 3
  216. Commercial name                          : Dolby Digital
  217. Codec ID                                 : A_AC3
  218. Duration                                 : 2 h 18 min
  219. Bit rate mode                            : Constant
  220. Bit rate                                 : 640 kb/s
  221. Channel(s)                               : 6 channels
  222. Channel layout                           : L R C LFE Ls Rs
  223. Sampling rate                            : 48.0 kHz
  224. Frame rate                               : 31.250 FPS (1536 SPF)
  225. Compression mode                         : Lossy
  226. Stream size                              : 635 MiB (1%)
  227. Title                                    : DD 5.1
  228. Language                                 : Hungarian
  229. Service kind                             : Complete Main
  230. Default                                  : No
  231. Forced                                   : No
  232. Original source medium                   : Blu-ray
  233. Audio #10
  234. ID                                       : 11
  235. ID in the original source medium         : 4360 (0x1108)
  236. Format                                   : DTS XLL
  237. Format/Info                              : Digital Theater Systems
  238. Commercial name                          : DTS-HD Master Audio
  239. Codec ID                                 : A_DTS
  240. Duration                                 : 2 h 18 min
  241. Bit rate mode                            : Variable
  242. Bit rate                                 : 2 492 kb/s
  243. Channel(s)                               : 6 channels
  244. Channel layout                           : C L R Ls Rs LFE
  245. Sampling rate                            : 48.0 kHz
  246. Frame rate                               : 93.750 FPS (512 SPF)
  247. Bit depth                                : 16 bits
  248. Compression mode                         : Lossless
  249. Stream size                              : 2.41 GiB (3%)
  250. Title                                    : DTS-HD MA 5.1
  251. Language                                 : Italian
  252. Default                                  : No
  253. Forced                                   : No
  254. Original source medium                   : Blu-ray
  255. Audio #11
  256. ID                                       : 12
  257. ID in the original source medium         : 4361 (0x1109)
  258. Format                                   : AC-3
  259. Format/Info                              : Audio Coding 3
  260. Commercial name                          : Dolby Digital
  261. Codec ID                                 : A_AC3
  262. Duration                                 : 2 h 18 min
  263. Bit rate mode                            : Constant
  264. Bit rate                                 : 640 kb/s
  265. Channel(s)                               : 6 channels
  266. Channel layout                           : L R C LFE Ls Rs
  267. Sampling rate                            : 48.0 kHz
  268. Frame rate                               : 31.250 FPS (1536 SPF)
  269. Compression mode                         : Lossy
  270. Stream size                              : 635 MiB (1%)
  271. Title                                    : DD 5.1
  272. Language                                 : Polish
  273. Service kind                             : Complete Main
  274. Default                                  : No
  275. Forced                                   : No
  276. Original source medium                   : Blu-ray
  277. Audio #12
  278. ID                                       : 13
  279. ID in the original source medium         : 4362 (0x110A)
  280. Format                                   : AC-3
  281. Format/Info                              : Audio Coding 3
  282. Commercial name                          : Dolby Digital
  283. Codec ID                                 : A_AC3
  284. Duration                                 : 2 h 18 min
  285. Bit rate mode                            : Constant
  286. Bit rate                                 : 640 kb/s
  287. Channel(s)                               : 6 channels
  288. Channel layout                           : L R C LFE Ls Rs
  289. Sampling rate                            : 48.0 kHz
  290. Frame rate                               : 31.250 FPS (1536 SPF)
  291. Compression mode                         : Lossy
  292. Stream size                              : 635 MiB (1%)
  293. Title                                    : DD 5.1
  294. Language                                 : Portuguese
  295. Service kind                             : Complete Main
  296. Default                                  : No
  297. Forced                                   : No
  298. Original source medium                   : Blu-ray
  299. Audio #13
  300. ID                                       : 14
  301. ID in the original source medium         : 4363 (0x110B)
  302. Format                                   : AC-3
  303. Format/Info                              : Audio Coding 3
  304. Commercial name                          : Dolby Digital
  305. Codec ID                                 : A_AC3
  306. Duration                                 : 2 h 18 min
  307. Bit rate mode                            : Constant
  308. Bit rate                                 : 640 kb/s
  309. Channel(s)                               : 6 channels
  310. Channel layout                           : L R C LFE Ls Rs
  311. Sampling rate                            : 48.0 kHz
  312. Frame rate                               : 31.250 FPS (1536 SPF)
  313. Compression mode                         : Lossy
  314. Stream size                              : 635 MiB (1%)
  315. Title                                    : DD 5.1
  316. Language                                 : Russian
  317. Service kind                             : Complete Main
  318. Default                                  : No
  319. Forced                                   : No
  320. Original source medium                   : Blu-ray
  321. Audio #14
  322. ID                                       : 15
  323. ID in the original source medium         : 4364 (0x110C)
  324. Format                                   : DTS XLL
  325. Format/Info                              : Digital Theater Systems
  326. Commercial name                          : DTS-HD Master Audio
  327. Codec ID                                 : A_DTS
  328. Duration                                 : 2 h 18 min
  329. Bit rate mode                            : Variable
  330. Bit rate                                 : 2 558 kb/s
  331. Channel(s)                               : 6 channels
  332. Channel layout                           : C L R Ls Rs LFE
  333. Sampling rate                            : 48.0 kHz
  334. Frame rate                               : 93.750 FPS (512 SPF)
  335. Bit depth                                : 16 bits
  336. Compression mode                         : Lossless
  337. Stream size                              : 2.48 GiB (3%)
  338. Title                                    : DTS-HD MA 5.1
  339. Language                                 : Spanish
  340. Default                                  : No
  341. Forced                                   : No
  342. Original source medium                   : Blu-ray
  343. Audio #15
  344. ID                                       : 16
  345. ID in the original source medium         : 4365 (0x110D)
  346. Format                                   : AC-3
  347. Format/Info                              : Audio Coding 3
  348. Commercial name                          : Dolby Digital
  349. Codec ID                                 : A_AC3
  350. Duration                                 : 2 h 18 min
  351. Bit rate mode                            : Constant
  352. Bit rate                                 : 640 kb/s
  353. Channel(s)                               : 6 channels
  354. Channel layout                           : L R C LFE Ls Rs
  355. Sampling rate                            : 48.0 kHz
  356. Frame rate                               : 31.250 FPS (1536 SPF)
  357. Compression mode                         : Lossy
  358. Stream size                              : 635 MiB (1%)
  359. Title                                    : DD 5.1
  360. Language                                 : Spanish
  361. Service kind                             : Complete Main
  362. Default                                  : No
  363. Forced                                   : No
  364. Original source medium                   : Blu-ray
  365. Text #1
  366. ID                                       : 17
  367. Format                                   : UTF-8
  368. Codec ID                                 : S_TEXT/UTF8
  369. Codec ID/Info                            : UTF-8 Plain Text
  370. Duration                                 : 1 h 23 min
  371. Bit rate                                 : 0 b/s
  372. Frame rate                               : 0.004 FPS
  373. Count of elements                        : 19
  374. Stream size                              : 459 Bytes (0%)
  375. Title                                    : FORCED
  376. Language                                 : English
  377. Default                                  : No
  378. Forced                                   : Yes
  379. Text #2
  380. ID                                       : 18
  381. Format                                   : UTF-8
  382. Codec ID                                 : S_TEXT/UTF8
  383. Codec ID/Info                            : UTF-8 Plain Text
  384. Duration                                 : 2 h 12 min
  385. Bit rate                                 : 49 b/s
  386. Frame rate                               : 0.162 FPS
  387. Count of elements                        : 1289
  388. Stream size                              : 48.2 KiB (0%)
  389. Language                                 : English
  390. Default                                  : Yes
  391. Forced                                   : No
  392. Text #3
  393. ID                                       : 19
  394. Format                                   : UTF-8
  395. Codec ID                                 : S_TEXT/UTF8
  396. Codec ID/Info                            : UTF-8 Plain Text
  397. Duration                                 : 2 h 17 min
  398. Bit rate                                 : 51 b/s
  399. Frame rate                               : 0.186 FPS
  400. Count of elements                        : 1533
  401. Stream size                              : 51.7 KiB (0%)
  402. Title                                    : SDH
  403. Language                                 : English
  404. Default                                  : No
  405. Forced                                   : No
  406. Text #4
  407. ID                                       : 20
  408. ID in the original source medium         : 4768 (0x12A0)
  409. Format                                   : PGS
  410. Muxing mode                              : zlib
  411. Codec ID                                 : S_HDMV/PGS
  412. Codec ID/Info                            : Picture based subtitle format used on BDs/HD-DVDs
  413. Duration                                 : 2 h 17 min
  414. Bit rate                                 : 30.2 kb/s
  415. Frame rate                               : 0.380 FPS
  416. Count of elements                        : 3142
  417. Stream size                              : 29.7 MiB (0%)
  418. Language                                 : English
  419. Default                                  : No
  420. Forced                                   : No
  421. Original source medium                   : Blu-ray
  422. Text #5
  423. ID                                       : 21
  424. ID in the original source medium         : 4769 (0x12A1)
  425. Format                                   : PGS
  426. Muxing mode                              : zlib
  427. Codec ID                                 : S_HDMV/PGS
  428. Codec ID/Info                            : Picture based subtitle format used on BDs/HD-DVDs
  429. Duration                                 : 2 h 1 min
  430. Bit rate                                 : 27.7 kb/s
  431. Frame rate                               : 0.321 FPS
  432. Count of elements                        : 2344
  433. Stream size                              : 24.1 MiB (0%)
  434. Language                                 : English
  435. Default                                  : No
  436. Forced                                   : No
  437. Original source medium                   : Blu-ray
  438. Text #6
  439. ID                                       : 22
  440. ID in the original source medium         : 4769 (0x12A1)
  441. Format                                   : PGS
  442. Muxing mode                              : zlib
  443. Codec ID                                 : S_HDMV/PGS
  444. Codec ID/Info                            : Picture based subtitle format used on BDs/HD-DVDs
  445. Duration                                 : 1 h 23 min
  446. Bit rate                                 : 449 b/s
  447. Frame rate                               : 0.008 FPS
  448. Count of elements                        : 38
  449. Stream size                              : 274 KiB (0%)
  450. Language                                 : English
  451. Default                                  : No
  452. Forced                                   : No
  453. Original source medium                   : Blu-ray
  454. Text #7
  455. ID                                       : 23
  456. ID in the original source medium         : 4770 (0x12A2)
  457. Format                                   : PGS
  458. Muxing mode                              : zlib
  459. Codec ID                                 : S_HDMV/PGS
  460. Codec ID/Info                            : Picture based subtitle format used on BDs/HD-DVDs
  461. Duration                                 : 2 h 17 min
  462. Bit rate                                 : 27.8 kb/s
  463. Frame rate                               : 0.357 FPS
  464. Count of elements                        : 2949
  465. Stream size                              : 27.4 MiB (0%)
  466. Language                                 : English
  467. Default                                  : No
  468. Forced                                   : No
  469. Original source medium                   : Blu-ray
  470. Text #8
  471. ID                                       : 24
  472. ID in the original source medium         : 4771 (0x12A3)
  473. Format                                   : PGS
  474. Muxing mode                              : zlib
  475. Codec ID                                 : S_HDMV/PGS
  476. Codec ID/Info                            : Picture based subtitle format used on BDs/HD-DVDs
  477. Duration                                 : 2 h 1 min
  478. Bit rate                                 : 26.5 kb/s
  479. Frame rate                               : 0.286 FPS
  480. Count of elements                        : 2090
  481. Stream size                              : 23.1 MiB (0%)
  482. Language                                 : English
  483. Default                                  : No
  484. Forced                                   : No
  485. Original source medium                   : Blu-ray
  486. Text #9
  487. ID                                       : 25
  488. ID in the original source medium         : 4771 (0x12A3)
  489. Format                                   : PGS
  490. Muxing mode                              : zlib
  491. Codec ID                                 : S_HDMV/PGS
  492. Codec ID/Info                            : Picture based subtitle format used on BDs/HD-DVDs
  493. Duration                                 : 1 h 23 min
  494. Bit rate                                 : 448 b/s
  495. Frame rate                               : 0.007 FPS
  496. Count of elements                        : 36
  497. Stream size                              : 273 KiB (0%)
  498. Language                                 : English
  499. Default                                  : No
  500. Forced                                   : No
  501. Original source medium                   : Blu-ray
  502. Text #10
  503. ID                                       : 26
  504. ID in the original source medium         : 4772 (0x12A4)
  505. Format                                   : PGS
  506. Muxing mode                              : zlib
  507. Codec ID                                 : S_HDMV/PGS
  508. Codec ID/Info                            : Picture based subtitle format used on BDs/HD-DVDs
  509. Duration                                 : 2 h 8 min
  510. Bit rate                                 : 11.4 kb/s
  511. Frame rate                               : 0.220 FPS
  512. Count of elements                        : 1692
  513. Stream size                              : 10.5 MiB (0%)
  514. Language                                 : Arabic
  515. Default                                  : No
  516. Forced                                   : No
  517. Original source medium                   : Blu-ray
  518. Text #11
  519. ID                                       : 27
  520. ID in the original source medium         : 4773 (0x12A5)
  521. Format                                   : PGS
  522. Muxing mode                              : zlib
  523. Codec ID                                 : S_HDMV/PGS
  524. Codec ID/Info                            : Picture based subtitle format used on BDs/HD-DVDs
  525. Duration                                 : 2 h 8 min
  526. Bit rate                                 : 18.0 kb/s
  527. Frame rate                               : 0.227 FPS
  528. Count of elements                        : 1750
  529. Stream size                              : 16.5 MiB (0%)
  530. Language                                 : Chinese
  531. Default                                  : No
  532. Forced                                   : No
  533. Original source medium                   : Blu-ray
  534. Text #12
  535. ID                                       : 28
  536. ID in the original source medium         : 4774 (0x12A6)
  537. Format                                   : PGS
  538. Muxing mode                              : zlib
  539. Codec ID                                 : S_HDMV/PGS
  540. Codec ID/Info                            : Picture based subtitle format used on BDs/HD-DVDs
  541. Duration                                 : 2 h 8 min
  542. Bit rate                                 : 17.7 kb/s
  543. Frame rate                               : 0.227 FPS
  544. Count of elements                        : 1748
  545. Stream size                              : 16.2 MiB (0%)
  546. Language                                 : Chinese
  547. Default                                  : No
  548. Forced                                   : No
  549. Original source medium                   : Blu-ray
  550. Text #13
  551. ID                                       : 29
  552. ID in the original source medium         : 4775 (0x12A7)
  553. Format                                   : PGS
  554. Muxing mode                              : zlib
  555. Codec ID                                 : S_HDMV/PGS
  556. Codec ID/Info                            : Picture based subtitle format used on BDs/HD-DVDs
  557. Duration                                 : 2 h 8 min
  558. Bit rate                                 : 17.2 kb/s
  559. Frame rate                               : 0.218 FPS
  560. Count of elements                        : 1680
  561. Stream size                              : 15.8 MiB (0%)
  562. Language                                 : Czech
  563. Default                                  : No
  564. Forced                                   : No
  565. Original source medium                   : Blu-ray
  566. Text #14
  567. ID                                       : 30
  568. ID in the original source medium         : 4775 (0x12A7)
  569. Format                                   : PGS
  570. Muxing mode                              : zlib
  571. Codec ID                                 : S_HDMV/PGS
  572. Codec ID/Info                            : Picture based subtitle format used on BDs/HD-DVDs
  573. Duration                                 : 1 h 30 min
  574. Bit rate                                 : 540 b/s
  575. Frame rate                               : 0.010 FPS
  576. Count of elements                        : 56
  577. Stream size                              : 359 KiB (0%)
  578. Language                                 : Czech
  579. Default                                  : No
  580. Forced                                   : No
  581. Original source medium                   : Blu-ray
  582. Text #15
  583. ID                                       : 31
  584. ID in the original source medium         : 4776 (0x12A8)
  585. Format                                   : PGS
  586. Muxing mode                              : zlib
  587. Codec ID                                 : S_HDMV/PGS
  588. Codec ID/Info                            : Picture based subtitle format used on BDs/HD-DVDs
  589. Duration                                 : 2 h 5 min
  590. Bit rate                                 : 17.5 kb/s
  591. Frame rate                               : 0.210 FPS
  592. Count of elements                        : 1580
  593. Stream size                              : 15.7 MiB (0%)
  594. Language                                 : Danish
  595. Default                                  : No
  596. Forced                                   : No
  597. Original source medium                   : Blu-ray
  598. Text #16
  599. ID                                       : 32
  600. ID in the original source medium         : 4777 (0x12A9)
  601. Format                                   : PGS
  602. Muxing mode                              : zlib
  603. Codec ID                                 : S_HDMV/PGS
  604. Codec ID/Info                            : Picture based subtitle format used on BDs/HD-DVDs
  605. Duration                                 : 2 h 8 min
  606. Bit rate                                 : 19.0 kb/s
  607. Frame rate                               : 0.217 FPS
  608. Count of elements                        : 1672
  609. Stream size                              : 17.5 MiB (0%)
  610. Language                                 : Dutch
  611. Default                                  : No
  612. Forced                                   : No
  613. Original source medium                   : Blu-ray
  614. Text #17
  615. ID                                       : 33
  616. ID in the original source medium         : 4778 (0x12AA)
  617. Format                                   : PGS
  618. Muxing mode                              : zlib
  619. Codec ID                                 : S_HDMV/PGS
  620. Codec ID/Info                            : Picture based subtitle format used on BDs/HD-DVDs
  621. Duration                                 : 2 h 5 min
  622. Bit rate                                 : 19.2 kb/s
  623. Frame rate                               : 0.218 FPS
  624. Count of elements                        : 1634
  625. Stream size                              : 17.2 MiB (0%)
  626. Language                                 : Finnish
  627. Default                                  : No
  628. Forced                                   : No
  629. Original source medium                   : Blu-ray
  630. Text #18
  631. ID                                       : 34
  632. ID in the original source medium         : 4779 (0x12AB)
  633. Format                                   : PGS
  634. Muxing mode                              : zlib
  635. Codec ID                                 : S_HDMV/PGS
  636. Codec ID/Info                            : Picture based subtitle format used on BDs/HD-DVDs
  637. Duration                                 : 2 h 14 min
  638. Bit rate                                 : 17.0 kb/s
  639. Frame rate                               : 0.219 FPS
  640. Count of elements                        : 1772
  641. Stream size                              : 16.4 MiB (0%)
  642. Language                                 : French
  643. Default                                  : No
  644. Forced                                   : No
  645. Original source medium                   : Blu-ray
  646. Text #19
  647. ID                                       : 35
  648. ID in the original source medium         : 4779 (0x12AB)
  649. Format                                   : PGS
  650. Muxing mode                              : zlib
  651. Codec ID                                 : S_HDMV/PGS
  652. Codec ID/Info                            : Picture based subtitle format used on BDs/HD-DVDs
  653. Duration                                 : 2 h 14 min
  654. Bit rate                                 : 295 b/s
  655. Frame rate                               : 0.004 FPS
  656. Count of elements                        : 34
  657. Stream size                              : 292 KiB (0%)
  658. Language                                 : French
  659. Default                                  : No
  660. Forced                                   : No
  661. Original source medium                   : Blu-ray
  662. Text #20
  663. ID                                       : 36
  664. ID in the original source medium         : 4780 (0x12AC)
  665. Format                                   : PGS
  666. Muxing mode                              : zlib
  667. Codec ID                                 : S_HDMV/PGS
  668. Codec ID/Info                            : Picture based subtitle format used on BDs/HD-DVDs
  669. Duration                                 : 2 h 8 min
  670. Bit rate                                 : 19.8 kb/s
  671. Frame rate                               : 0.218 FPS
  672. Count of elements                        : 1676
  673. Stream size                              : 18.2 MiB (0%)
  674. Language                                 : German
  675. Default                                  : No
  676. Forced                                   : No
  677. Original source medium                   : Blu-ray
  678. Text #21
  679. ID                                       : 37
  680. ID in the original source medium         : 4780 (0x12AC)
  681. Format                                   : PGS
  682. Muxing mode                              : zlib
  683. Codec ID                                 : S_HDMV/PGS
  684. Codec ID/Info                            : Picture based subtitle format used on BDs/HD-DVDs
  685. Duration                                 : 2 h 5 min
  686. Bit rate                                 : 633 b/s
  687. Frame rate                               : 0.010 FPS
  688. Count of elements                        : 76
  689. Stream size                              : 582 KiB (0%)
  690. Language                                 : German
  691. Default                                  : No
  692. Forced                                   : No
  693. Original source medium                   : Blu-ray
  694. Text #22
  695. ID                                       : 38
  696. ID in the original source medium         : 4781 (0x12AD)
  697. Format                                   : PGS
  698. Muxing mode                              : zlib
  699. Codec ID                                 : S_HDMV/PGS
  700. Codec ID/Info                            : Picture based subtitle format used on BDs/HD-DVDs
  701. Duration                                 : 2 h 9 min
  702. Bit rate                                 : 18.7 kb/s
  703. Frame rate                               : 0.208 FPS
  704. Count of elements                        : 1612
  705. Stream size                              : 17.3 MiB (0%)
  706. Language                                 : Greek
  707. Default                                  : No
  708. Forced                                   : No
  709. Original source medium                   : Blu-ray
  710. Text #23
  711. ID                                       : 39
  712. ID in the original source medium         : 4782 (0x12AE)
  713. Format                                   : PGS
  714. Muxing mode                              : zlib
  715. Codec ID                                 : S_HDMV/PGS
  716. Codec ID/Info                            : Picture based subtitle format used on BDs/HD-DVDs
  717. Duration                                 : 2 h 8 min
  718. Bit rate                                 : 12.4 kb/s
  719. Frame rate                               : 0.220 FPS
  720. Count of elements                        : 1696
  721. Stream size                              : 11.4 MiB (0%)
  722. Language                                 : Hindi
  723. Default                                  : No
  724. Forced                                   : No
  725. Original source medium                   : Blu-ray
  726. Text #24
  727. ID                                       : 40
  728. ID in the original source medium         : 4782 (0x12AE)
  729. Format                                   : PGS
  730. Muxing mode                              : zlib
  731. Codec ID                                 : S_HDMV/PGS
  732. Codec ID/Info                            : Picture based subtitle format used on BDs/HD-DVDs
  733. Duration                                 : 2 h 5 min
  734. Bit rate                                 : 529 b/s
  735. Frame rate                               : 0.013 FPS
  736. Count of elements                        : 100
  737. Stream size                              : 486 KiB (0%)
  738. Language                                 : Hindi
  739. Default                                  : No
  740. Forced                                   : No
  741. Original source medium                   : Blu-ray
  742. Text #25
  743. ID                                       : 41
  744. ID in the original source medium         : 4783 (0x12AF)
  745. Format                                   : PGS
  746. Muxing mode                              : zlib
  747. Codec ID                                 : S_HDMV/PGS
  748. Codec ID/Info                            : Picture based subtitle format used on BDs/HD-DVDs
  749. Duration                                 : 2 h 8 min
  750. Bit rate                                 : 19.4 kb/s
  751. Frame rate                               : 0.220 FPS
  752. Count of elements                        : 1692
  753. Stream size                              : 17.9 MiB (0%)
  754. Language                                 : Hungarian
  755. Default                                  : No
  756. Forced                                   : No
  757. Original source medium                   : Blu-ray
  758. Text #26
  759. ID                                       : 42
  760. ID in the original source medium         : 4783 (0x12AF)
  761. Format                                   : PGS
  762. Muxing mode                              : zlib
  763. Codec ID                                 : S_HDMV/PGS
  764. Codec ID/Info                            : Picture based subtitle format used on BDs/HD-DVDs
  765. Duration                                 : 2 h 5 min
  766. Bit rate                                 : 718 b/s
  767. Frame rate                               : 0.012 FPS
  768. Count of elements                        : 90
  769. Stream size                              : 660 KiB (0%)
  770. Language                                 : Hungarian
  771. Default                                  : No
  772. Forced                                   : No
  773. Original source medium                   : Blu-ray
  774. Text #27
  775. ID                                       : 43
  776. ID in the original source medium         : 4784 (0x12B0)
  777. Format                                   : PGS
  778. Muxing mode                              : zlib
  779. Codec ID                                 : S_HDMV/PGS
  780. Codec ID/Info                            : Picture based subtitle format used on BDs/HD-DVDs
  781. Duration                                 : 2 h 8 min
  782. Bit rate                                 : 19.5 kb/s
  783. Frame rate                               : 0.219 FPS
  784. Count of elements                        : 1684
  785. Stream size                              : 17.9 MiB (0%)
  786. Language                                 : Italian
  787. Default                                  : No
  788. Forced                                   : No
  789. Original source medium                   : Blu-ray
  790. Text #28
  791. ID                                       : 44
  792. ID in the original source medium         : 4784 (0x12B0)
  793. Format                                   : PGS
  794. Muxing mode                              : zlib
  795. Codec ID                                 : S_HDMV/PGS
  796. Codec ID/Info                            : Picture based subtitle format used on BDs/HD-DVDs
  797. Duration                                 : 2 h 5 min
  798. Bit rate                                 : 610 b/s
  799. Frame rate                               : 0.010 FPS
  800. Count of elements                        : 72
  801. Stream size                              : 560 KiB (0%)
  802. Language                                 : Italian
  803. Default                                  : No
  804. Forced                                   : No
  805. Original source medium                   : Blu-ray
  806. Text #29
  807. ID                                       : 45
  808. ID in the original source medium         : 4785 (0x12B1)
  809. Format                                   : PGS
  810. Muxing mode                              : zlib
  811. Codec ID                                 : S_HDMV/PGS
  812. Codec ID/Info                            : Picture based subtitle format used on BDs/HD-DVDs
  813. Duration                                 : 2 h 8 min
  814. Bit rate                                 : 16.4 kb/s
  815. Frame rate                               : 0.209 FPS
  816. Count of elements                        : 1609
  817. Stream size                              : 15.0 MiB (0%)
  818. Language                                 : Korean
  819. Default                                  : No
  820. Forced                                   : No
  821. Original source medium                   : Blu-ray
  822. Text #30
  823. ID                                       : 46
  824. ID in the original source medium         : 4786 (0x12B2)
  825. Format                                   : PGS
  826. Muxing mode                              : zlib
  827. Codec ID                                 : S_HDMV/PGS
  828. Codec ID/Info                            : Picture based subtitle format used on BDs/HD-DVDs
  829. Duration                                 : 2 h 5 min
  830. Bit rate                                 : 18.1 kb/s
  831. Frame rate                               : 0.211 FPS
  832. Count of elements                        : 1588
  833. Stream size                              : 16.2 MiB (0%)
  834. Language                                 : Norwegian
  835. Default                                  : No
  836. Forced                                   : No
  837. Original source medium                   : Blu-ray
  838. Text #31
  839. ID                                       : 47
  840. ID in the original source medium         : 4787 (0x12B3)
  841. Format                                   : PGS
  842. Muxing mode                              : zlib
  843. Codec ID                                 : S_HDMV/PGS
  844. Codec ID/Info                            : Picture based subtitle format used on BDs/HD-DVDs
  845. Duration                                 : 2 h 8 min
  846. Bit rate                                 : 18.1 kb/s
  847. Frame rate                               : 0.219 FPS
  848. Count of elements                        : 1688
  849. Stream size                              : 16.6 MiB (0%)
  850. Language                                 : Polish
  851. Default                                  : No
  852. Forced                                   : No
  853. Original source medium                   : Blu-ray
  854. Text #32
  855. ID                                       : 48
  856. ID in the original source medium         : 4787 (0x12B3)
  857. Format                                   : PGS
  858. Muxing mode                              : zlib
  859. Codec ID                                 : S_HDMV/PGS
  860. Codec ID/Info                            : Picture based subtitle format used on BDs/HD-DVDs
  861. Duration                                 : 2 h 5 min
  862. Bit rate                                 : 745 b/s
  863. Frame rate                               : 0.012 FPS
  864. Count of elements                        : 92
  865. Stream size                              : 684 KiB (0%)
  866. Language                                 : Polish
  867. Default                                  : No
  868. Forced                                   : No
  869. Original source medium                   : Blu-ray
  870. Text #33
  871. ID                                       : 49
  872. ID in the original source medium         : 4788 (0x12B4)
  873. Format                                   : PGS
  874. Muxing mode                              : zlib
  875. Codec ID                                 : S_HDMV/PGS
  876. Codec ID/Info                            : Picture based subtitle format used on BDs/HD-DVDs
  877. Duration                                 : 2 h 8 min
  878. Bit rate                                 : 22.7 kb/s
  879. Frame rate                               : 0.268 FPS
  880. Count of elements                        : 2062
  881. Stream size                              : 20.8 MiB (0%)
  882. Language                                 : Portuguese
  883. Default                                  : No
  884. Forced                                   : No
  885. Original source medium                   : Blu-ray
  886. Text #34
  887. ID                                       : 50
  888. ID in the original source medium         : 4788 (0x12B4)
  889. Format                                   : PGS
  890. Muxing mode                              : zlib
  891. Codec ID                                 : S_HDMV/PGS
  892. Codec ID/Info                            : Picture based subtitle format used on BDs/HD-DVDs
  893. Duration                                 : 1 h 30 min
  894. Bit rate                                 : 437 b/s
  895. Frame rate                               : 0.007 FPS
  896. Count of elements                        : 40
  897. Stream size                              : 289 KiB (0%)
  898. Language                                 : Portuguese
  899. Default                                  : No
  900. Forced                                   : No
  901. Original source medium                   : Blu-ray
  902. Text #35
  903. ID                                       : 51
  904. ID in the original source medium         : 4789 (0x12B5)
  905. Format                                   : PGS
  906. Muxing mode                              : zlib
  907. Codec ID                                 : S_HDMV/PGS
  908. Codec ID/Info                            : Picture based subtitle format used on BDs/HD-DVDs
  909. Duration                                 : 2 h 17 min
  910. Bit rate                                 : 19.1 kb/s
  911. Frame rate                               : 0.216 FPS
  912. Count of elements                        : 1788
  913. Stream size                              : 18.9 MiB (0%)
  914. Language                                 : Portuguese
  915. Default                                  : No
  916. Forced                                   : No
  917. Original source medium                   : Blu-ray
  918. Text #36
  919. ID                                       : 52
  920. ID in the original source medium         : 4790 (0x12B6)
  921. Format                                   : PGS
  922. Muxing mode                              : zlib
  923. Codec ID                                 : S_HDMV/PGS
  924. Codec ID/Info                            : Picture based subtitle format used on BDs/HD-DVDs
  925. Duration                                 : 2 h 17 min
  926. Bit rate                                 : 17.7 kb/s
  927. Frame rate                               : 0.204 FPS
  928. Count of elements                        : 1688
  929. Stream size                              : 17.5 MiB (0%)
  930. Language                                 : Romanian
  931. Default                                  : No
  932. Forced                                   : No
  933. Original source medium                   : Blu-ray
  934. Text #37
  935. ID                                       : 53
  936. ID in the original source medium         : 4791 (0x12B7)
  937. Format                                   : PGS
  938. Muxing mode                              : zlib
  939. Codec ID                                 : S_HDMV/PGS
  940. Codec ID/Info                            : Picture based subtitle format used on BDs/HD-DVDs
  941. Duration                                 : 2 h 8 min
  942. Bit rate                                 : 19.4 kb/s
  943. Frame rate                               : 0.223 FPS
  944. Count of elements                        : 1714
  945. Stream size                              : 17.8 MiB (0%)
  946. Language                                 : Russian
  947. Default                                  : No
  948. Forced                                   : No
  949. Original source medium                   : Blu-ray
  950. Text #38
  951. ID                                       : 54
  952. ID in the original source medium         : 4791 (0x12B7)
  953. Format                                   : PGS
  954. Muxing mode                              : zlib
  955. Codec ID                                 : S_HDMV/PGS
  956. Codec ID/Info                            : Picture based subtitle format used on BDs/HD-DVDs
  957. Duration                                 : 2 h 5 min
  958. Bit rate                                 : 874 b/s
  959. Frame rate                               : 0.013 FPS
  960. Count of elements                        : 96
  961. Stream size                              : 803 KiB (0%)
  962. Language                                 : Russian
  963. Default                                  : No
  964. Forced                                   : No
  965. Original source medium                   : Blu-ray
  966. Text #39
  967. ID                                       : 55
  968. ID in the original source medium         : 4792 (0x12B8)
  969. Format                                   : PGS
  970. Muxing mode                              : zlib
  971. Codec ID                                 : S_HDMV/PGS
  972. Codec ID/Info                            : Picture based subtitle format used on BDs/HD-DVDs
  973. Duration                                 : 2 h 8 min
  974. Bit rate                                 : 18.5 kb/s
  975. Frame rate                               : 0.219 FPS
  976. Count of elements                        : 1686
  977. Stream size                              : 17.0 MiB (0%)
  978. Language                                 : Slovak
  979. Default                                  : No
  980. Forced                                   : No
  981. Original source medium                   : Blu-ray
  982. Text #40
  983. ID                                       : 56
  984. ID in the original source medium         : 4793 (0x12B9)
  985. Format                                   : PGS
  986. Muxing mode                              : zlib
  987. Codec ID                                 : S_HDMV/PGS
  988. Codec ID/Info                            : Picture based subtitle format used on BDs/HD-DVDs
  989. Duration                                 : 2 h 8 min
  990. Bit rate                                 : 17.0 kb/s
  991. Frame rate                               : 0.219 FPS
  992. Count of elements                        : 1690
  993. Stream size                              : 15.6 MiB (0%)
  994. Language                                 : Slovenian
  995. Default                                  : No
  996. Forced                                   : No
  997. Original source medium                   : Blu-ray
  998. Text #41
  999. ID                                       : 57
  1000. ID in the original source medium         : 4794 (0x12BA)
  1001. Format                                   : PGS
  1002. Muxing mode                              : zlib
  1003. Codec ID                                 : S_HDMV/PGS
  1004. Codec ID/Info                            : Picture based subtitle format used on BDs/HD-DVDs
  1005. Duration                                 : 2 h 8 min
  1006. Bit rate                                 : 19.1 kb/s
  1007. Frame rate                               : 0.217 FPS
  1008. Count of elements                        : 1670
  1009. Stream size                              : 17.5 MiB (0%)
  1010. Language                                 : Spanish
  1011. Default                                  : No
  1012. Forced                                   : No
  1013. Original source medium                   : Blu-ray
  1014. Text #42
  1015. ID                                       : 58
  1016. ID in the original source medium         : 4794 (0x12BA)
  1017. Format                                   : PGS
  1018. Muxing mode                              : zlib
  1019. Codec ID                                 : S_HDMV/PGS
  1020. Codec ID/Info                            : Picture based subtitle format used on BDs/HD-DVDs
  1021. Duration                                 : 2 h 5 min
  1022. Bit rate                                 : 793 b/s
  1023. Frame rate                               : 0.011 FPS
  1024. Count of elements                        : 84
  1025. Stream size                              : 729 KiB (0%)
  1026. Language                                 : Spanish
  1027. Default                                  : No
  1028. Forced                                   : No
  1029. Original source medium                   : Blu-ray
  1030. Text #43
  1031. ID                                       : 59
  1032. ID in the original source medium         : 4795 (0x12BB)
  1033. Format                                   : PGS
  1034. Muxing mode                              : zlib
  1035. Codec ID                                 : S_HDMV/PGS
  1036. Codec ID/Info                            : Picture based subtitle format used on BDs/HD-DVDs
  1037. Duration                                 : 2 h 8 min
  1038. Bit rate                                 : 23.4 kb/s
  1039. Frame rate                               : 0.329 FPS
  1040. Count of elements                        : 2536
  1041. Stream size                              : 21.5 MiB (0%)
  1042. Language                                 : Spanish
  1043. Default                                  : No
  1044. Forced                                   : No
  1045. Original source medium                   : Blu-ray
  1046. Text #44
  1047. ID                                       : 60
  1048. ID in the original source medium         : 4795 (0x12BB)
  1049. Format                                   : PGS
  1050. Muxing mode                              : zlib
  1051. Codec ID                                 : S_HDMV/PGS
  1052. Codec ID/Info                            : Picture based subtitle format used on BDs/HD-DVDs
  1053. Duration                                 : 2 h 5 min
  1054. Bit rate                                 : 695 b/s
  1055. Frame rate                               : 0.010 FPS
  1056. Count of elements                        : 77
  1057. Stream size                              : 639 KiB (0%)
  1058. Language                                 : Spanish
  1059. Default                                  : No
  1060. Forced                                   : No
  1061. Original source medium                   : Blu-ray
  1062. Text #45
  1063. ID                                       : 61
  1064. ID in the original source medium         : 4796 (0x12BC)
  1065. Format                                   : PGS
  1066. Muxing mode                              : zlib
  1067. Codec ID                                 : S_HDMV/PGS
  1068. Codec ID/Info                            : Picture based subtitle format used on BDs/HD-DVDs
  1069. Duration                                 : 2 h 5 min
  1070. Bit rate                                 : 16.3 kb/s
  1071. Frame rate                               : 0.216 FPS
  1072. Count of elements                        : 1622
  1073. Stream size                              : 14.6 MiB (0%)
  1074. Language                                 : Swedish
  1075. Default                                  : No
  1076. Forced                                   : No
  1077. Original source medium                   : Blu-ray
  1078. Text #46
  1079. ID                                       : 62
  1080. ID in the original source medium         : 4797 (0x12BD)
  1081. Format                                   : PGS
  1082. Muxing mode                              : zlib
  1083. Codec ID                                 : S_HDMV/PGS
  1084. Codec ID/Info                            : Picture based subtitle format used on BDs/HD-DVDs
  1085. Duration                                 : 2 h 8 min
  1086. Bit rate                                 : 20.0 kb/s
  1087. Frame rate                               : 0.220 FPS
  1088. Count of elements                        : 1694
  1089. Stream size                              : 18.4 MiB (0%)
  1090. Language                                 : Thai
  1091. Default                                  : No
  1092. Forced                                   : No
  1093. Original source medium                   : Blu-ray
  1094. Text #47
  1095. ID                                       : 63
  1096. ID in the original source medium         : 4798 (0x12BE)
  1097. Format                                   : PGS
  1098. Muxing mode                              : zlib
  1099. Codec ID                                 : S_HDMV/PGS
  1100. Codec ID/Info                            : Picture based subtitle format used on BDs/HD-DVDs
  1101. Duration                                 : 2 h 8 min
  1102. Bit rate                                 : 20.0 kb/s
  1103. Frame rate                               : 0.219 FPS
  1104. Count of elements                        : 1684
  1105. Stream size                              : 18.3 MiB (0%)
  1106. Language                                 : Turkish
  1107. Default                                  : No
  1108. Forced                                   : No
  1109. Original source medium                   : Blu-ray
  1110. Text #48
  1111. ID                                       : 64
  1112. ID in the original source medium         : 4799 (0x12BF)
  1113. Format                                   : PGS
  1114. Muxing mode                              : zlib
  1115. Codec ID                                 : S_HDMV/PGS
  1116. Codec ID/Info                            : Picture based subtitle format used on BDs/HD-DVDs
  1117. Duration                                 : 2 h 17 min
  1118. Bit rate                                 : 17.5 kb/s
  1119. Frame rate                               : 0.205 FPS
  1120. Count of elements                        : 1700
  1121. Stream size                              : 17.3 MiB (0%)
  1122. Language                                 : Ukrainian
  1123. Default                                  : No
  1124. Forced                                   : No
  1125. Original source medium                   : Blu-ray
  1126. Menu
  1127. 00:00:00.000                             : en:Chapter 01
  1128. 00:07:48.176                             : en:Chapter 02
  1129. 00:17:25.085                             : en:Chapter 03
  1130. 00:25:28.151                             : en:Chapter 04
  1131. 00:36:53.711                             : en:Chapter 05
  1132. 00:41:48.047                             : en:Chapter 06
  1133. 00:48:19.730                             : en:Chapter 07
  1134. 01:01:35.942                             : en:Chapter 08
  1135. 01:11:05.886                             : en:Chapter 09
  1136. 01:21:38.310                             : en:Chapter 10
  1137. 01:30:26.212                             : en:Chapter 11
  1138. 01:39:13.822                             : en:Chapter 12
  1139. 01:50:23.867                             : en:Chapter 13
  1140. 01:52:28.658                             : en:Chapter 14
  1141. 02:00:36.771                             : en:Chapter 15
  1142. 02:05:56.882                             : en:Chapter 16
复制代码




                                       
                                       

                                       
                                       
                                       




回复

使用道具 举报

蓝光币
212
发表于 2022-12-22 00:44:18 | 显示全部楼层
楼主发贴辛苦了,谢谢楼主分享!我觉得蓝光电影网是注册对了!
回复 支持 反对

使用道具 举报

蓝光币
94
发表于 2022-12-22 10:01:59 | 显示全部楼层
顶楼主辛苦发帖,蓝光电影网在抗疫工作中做出突出贡献
回复 支持 反对

使用道具 举报

蓝光币
40
发表于 2022-12-22 10:55:40 | 显示全部楼层
楼主发贴辛苦了,谢谢楼主分享!我觉得蓝光电影网是注册对了!
回复 支持 反对

使用道具 举报

蓝光币
172
发表于 2022-12-22 11:27:26 | 显示全部楼层
顶楼主辛苦发帖,蓝光电影网在抗疫工作中做出突出贡献
回复 支持 反对

使用道具 举报

蓝光币
93
发表于 2022-12-22 15:03:19 | 显示全部楼层
怀旧的电影
回复 支持 反对

使用道具 举报

蓝光币
123
发表于 2022-12-22 16:35:42 | 显示全部楼层

这个帖子不回对不起自己!我想我是一天也不能离开蓝光电影网。
回复 支持 反对

使用道具 举报

蓝光币
0
发表于 2022-12-22 17:50:01 | 显示全部楼层
ddddddddddddddddddd
回复 支持 反对

使用道具 举报

蓝光币
3743
发表于 2022-12-22 19:06:27 | 显示全部楼层

这东西我收了!谢谢楼主!蓝光电影网真好!
回复 支持 反对

使用道具 举报

蓝光币
2
发表于 2022-12-22 22:47:34 | 显示全部楼层
经典中的经典
回复 支持 反对

使用道具 举报

懒得打字嘛,点击右侧快捷回复 【右侧内容,后台自定义】
您需要登录后才可以回帖 登录 | 立即加入

本版积分规则

Archiver|小黑屋| 蓝光电影网 |网站地图

Copyright © 2021 Comsenz Inc. Powered by 蓝光电影网

蓝光电影网

本站内容由用户自主分享和转载自互联网,转载目的在于传递更多信息,并不代表本网赞同其观点和对其真实性负责。

如有侵权、违反国家法律政策行为,请联系我们,我们会第一时间及时清除和处理!

举报反馈邮箱:[email protected]

快速回复 返回顶部 返回列表