找回密码

蓝光电影网

查看: 2487|回复: 17

[剧情] 女伶们 The.Girls.1968.SWEDISH.1080p.BluRay.x264.FLAC1.0-KG 13.57GB

[复制链接]
蓝光币
1688
发表于 2022-12-22 11:14:03 | 显示全部楼层 |阅读模式
[img][/img]

◎标  题 女优们
◎译  名 女孩 / The Girls
◎片  名 Flickorna
◎年  代 1968
◎产  地 瑞典
◎类  别 剧情 / 笑剧
◎语  言 瑞典语
◎上映日期 1968-09-16(瑞典)
◎IMDb评分 6.7/10 (720人评价)
◎IMDb链接 https://www.imdb.com/title/tt0062981/
◎豆瓣评分 8.2/10 (103人评价)
◎豆瓣链接 https://movie.douban.com/subject/2220739/
◎片  长 100分钟
◎导  演 梅·扎特林 Mai Zetterling
◎编  剧 梅·扎特林 Mai Zetterling
       David Hughes David Hughes
◎演  员 毕比·安德松 Bibi Andersson
       哈里特·安德森 Harriet Andersson
       古内尔·林德布洛姆 Gunnel Lindblom
       古纳尔·布约恩施特兰德 Gunnar Björnstrand
       厄兰·约瑟夫森 Erland Josephson
       弗兰克·松德斯特伦 Frank Sundström
       奥克·林德斯特伦 Åke Lindström
       Stig Engström Stig Engström
       玛格丽特·韦弗斯 Margreth Weivers
       莱夫·利耶罗特 Leif Liljeroth
       乌尔夫·帕姆 Ulf Palme
       英瓦尔·谢尔松 Ingvar Kjellson
       Signe Enwall Signe Enwall
       Bellan Roos Bellan Roos
       Chris Wahlström Chris Wahlström
       贝蒂尔·诺斯特伦 Bertil Norström
       Henrik Schildt Henrik Schildt
       Gunnel Sporr Gunnel Sporr
       Karin Miller Karin Miller
       Gunilla Dahlman Gunilla Dahlman
       Monique Ernstdotter Monique Ernstdotter
       Brita Öberg Brita Öberg
       Per Grevér Per Grevér
       Manne Grünberger Manne Grünberger
       Göran Lindgren Göran Lindgren
       Michael Hurd Michael Hurd
       鲁恩·埃里克森 Rune Ericson
       Wic Kjellin Wic Kjellin
       Charles Delattre Charles Delattre
       乌拉-布里特·索德朗德 Ulla-Britt Söderlund
       本特·奥特希尔 Bengt Ottekil
◎简  介

  女演员丽兹、玛丽娅纳和古尼拉正在排演希腊古典戏剧家阿里斯托芬的《里斯特拉塔》,在排演进程中.三个妇女不由自立地把剧中人的遭受同她们小我生活相联。丽兹的丈夫是个粗鲁的股票经记人,他要丽兹分开舞台,留在家里。玛丽娅纳同一个年数比她大的医生同居并有一个孩子,医生委曲同妻子仳离而同她一路生活使她决议停止表演。古尼拉丈夫成天烦闷不欢,她成天忙这忙那,还要同五个孩子打交道。在巡回表演进程中,三个妇女便议论起她们同丈夫的关系和对男性的印象和看法。她们设想着策动一次叛逆活动……                                       
                                    幕后花絮                                       
                                    本片的女导演梅依柴特林是瑞典六十年月末新突起的女导演,她奇妙地用阿里斯托芬的《里斯特拉塔》这出描写妇女的三幕古典笑剧来对照三个现代妇女为争取自己的权利而展开的斗争。影片公映后,曾引发欧美和瑞典电影批评界的普遍留意,影片是对现代社会的嘲讽,滑稽、尖锐,是“一部现代笑剧的相当可喜的序幕...
  1. Video
  2. ID                                       : 1
  3. Format                                   : AVC
  4. Format/Info                              : Advanced Video Codec
  5. Format profile                           : [email protected]
  6. Format settings                          : CABAC / 4 Ref Frames
  7. Format settings, CABAC                   : Yes
  8. Format settings, Reference frames        : 4 frames
  9. Codec ID                                 : V_MPEG4/ISO/AVC
  10. Duration                                 : 1 h 40 min
  11. Bit rate                                 : 19.1 Mb/s
  12. Width                                    : 1 792 pixels
  13. Height                                   : 1 080 pixels
  14. Display aspect ratio                     : 5:3
  15. Frame rate mode                          : Constant
  16. Frame rate                               : 23.976 (24000/1001/189150) FPS
  17. Color space                              : YUV
  18. Chroma subsampling                       : 4:2:0
  19. Bit depth                                : 8 bits
  20. Scan type                                : Progressive
  21. Bits/(Pixel*Frame)                       : 0.411
  22. Stream size                              : 13.4 GiB (99%)
  23. Writing library                          : x264 core 142 r2479 dd79a61
  24. Encoding settings                        : cabac=1 / ref=4 / deblock=1:-3:-3 / analyse=0x3:0x133 / me=umh / subme=9 / psy=1 / psy_rd=1.00:0.00 / mixed_ref=1 / me_range=32 / chroma_me=1 / trellis=2 / 8x8dct=1 / cqm=0 / deadzone=21,11 / fast_pskip=0 / chroma_qp_offset=-2 / threads=9 / lookahead_threads=2 / sliced_threads=0 / nr=0 / decimate=1 / interlaced=0 / bluray_compat=0 / constrained_intra=0 / bframes=16 / b_pyramid=2 / b_adapt=2 / b_bias=0 / direct=3 / weightb=1 / open_gop=0 / weightp=2 / keyint=240 / keyint_min=24 / scenecut=40 / intra_refresh=0 / rc_lookahead=150 / rc=crf / mbtree=0 / crf=22.0 / qcomp=0.60 / qpmin=0 / qpmax=69 / qpstep=4 / vbv_maxrate=62500 / vbv_bufsize=78125 / crf_max=0.0 / nal_hrd=none / filler=0 / ip_ratio=1.40 / pb_ratio=1.30 / aq=1:1.00
  25. Default                                  : Yes
  26. Forced                                   : No
  27. Color range                              : Limited
  28. Color primaries                          : BT.709
  29. Transfer characteristics                 : BT.709
  30. Matrix coefficients                      : BT.709
  31. Audio
  32. ID                                       : 2
  33. Format                                   : FLAC
  34. Format/Info                              : Free Lossless Audio Codec
  35. Codec ID                                 : A_FLAC
  36. Duration                                 : 1 h 40 min
  37. Bit rate mode                            : Variable
  38. Bit rate                                 : 270 kb/s
  39. Channel(s)                               : 1 channel
  40. Channel layout                           : C
  41. Sampling rate                            : 48.0 kHz
  42. Frame rate                               : 11.719 FPS (4096 SPF)
  43. Bit depth                                : 16 bits
  44. Compression mode                         : Lossless
  45. Stream size                              : 194 MiB (1%)
  46. Writing library                          : libFLAC 1.2.1 (UTC 2007-09-17)
  47. Language                                 : Swedish
  48. Default                                  : Yes
  49. Forced                                   : No
  50. Text
  51. ID                                       : 3
  52. Format                                   : PGS
  53. Muxing mode                              : zlib
  54. Codec ID                                 : S_HDMV/PGS
  55. Codec ID/Info                            : Picture based subtitle format used on BDs/HD-DVDs
  56. Duration                                 : 1 h 37 min
  57. Bit rate                                 : 38.7 kb/s
  58. Frame rate                               : 0.298 FPS
  59. Count of elements                        : 1744
  60. Stream size                              : 27.0 MiB (0%)
  61. Language                                 : English
  62. Default                                  : No
  63. Forced                                   : No
  64. Menu
  65. 00:00:00.000                             : :Chapter 1
  66. 00:09:37.451                             : :Chapter 2
  67. 00:15:30.596                             : :Chapter 3
  68. 00:19:56.111                             : :Chapter 4
  69. 00:24:20.083                             : :Chapter 5
  70. 00:31:29.554                             : :Chapter 6
  71. 00:36:34.358                             : :Chapter 7
  72. 00:43:00.369                             : :Chapter 8
  73. 00:50:08.171                             : :Chapter 9
  74. 00:56:23.755                             : :Chapter 10
  75. 01:00:57.612                             : :Chapter 11
  76. 01:07:42.183                             : :Chapter 12
  77. 01:12:32.681                             : :Chapter 13
  78. 01:20:48.301                             : :Chapter 14
  79. 01:32:56.279                             : :Chapter 15
复制代码




                                       
                                       

                                       
                                       
                                       




回复

使用道具 举报

蓝光币
639
发表于 2022-12-23 15:31:27 | 显示全部楼层

楼主太厉害了!楼主,电影应该很好看我觉得蓝光电影网真是个好地方!
回复 支持 反对

使用道具 举报

蓝光币
889
发表于 2022-12-23 18:31:23 | 显示全部楼层
感谢楼主,再发精品
回复 支持 反对

使用道具 举报

蓝光币
1634
发表于 2022-12-24 05:42:52 | 显示全部楼层
这部影片是些什么情节呢,女伶的情感世界,还是女伶遇到了生命危险呢?
回复 支持 反对

使用道具 举报

蓝光币
1141
发表于 2022-12-24 09:02:26 | 显示全部楼层

这东西我收了!谢谢楼主!蓝光电影网真好!
回复 支持 反对

使用道具 举报

蓝光币
271
发表于 2022-12-24 15:43:29 | 显示全部楼层
楼主发贴辛苦了,谢谢楼主分享!我觉得蓝光电影网是注册对了!
回复 支持 反对

使用道具 举报

蓝光币
55
发表于 2022-12-24 23:56:19 | 显示全部楼层
楼主发贴辛苦了,谢谢楼主分享!我觉得蓝光电影网是注册对了!
回复 支持 反对

使用道具 举报

蓝光币
301
发表于 2022-12-25 14:44:57 | 显示全部楼层
楼主发贴辛苦了,谢谢楼主分享!我觉得蓝光电影网是注册对了!
回复 支持 反对

使用道具 举报

蓝光币
1352
发表于 2022-12-26 19:38:33 | 显示全部楼层
楼主发贴辛苦了,谢谢楼主分享!我觉得蓝光电影网是注册对了!
回复 支持 反对

使用道具 举报

蓝光币
889
发表于 2022-12-27 01:05:19 | 显示全部楼层
感谢楼主,再发精品
回复 支持 反对

使用道具 举报

懒得打字嘛,点击右侧快捷回复 【右侧内容,后台自定义】
您需要登录后才可以回帖 登录 | 立即加入

本版积分规则

Archiver|小黑屋| 蓝光电影网 |网站地图

Copyright © 2021 Comsenz Inc. Powered by 蓝光电影网

蓝光电影网

本站内容由用户自主分享和转载自互联网,转载目的在于传递更多信息,并不代表本网赞同其观点和对其真实性负责。

如有侵权、违反国家法律政策行为,请联系我们,我们会第一时间及时清除和处理!

举报反馈邮箱:4k1080.com@gmail.com

快速回复 返回顶部 返回列表