找回密码

查看: 1779|回复: 0

[惊悚] 挖掘 Dig.2022.1080p.BluRay.x264.DTS-HD.MA.5.1-NOGRP 8.07GB

[复制链接]
蓝光币
1840
发表于 2022-11-7 19:54:38 | 显示全部楼层 |阅读模式


◎标  题 挖掘
◎译  名 父女危机 / 聋哑父女求生记
◎片  名 Dig
◎年  代 2022
◎产  地 美国
◎类  别 惊悚
◎语  言 英语
◎IMDb链接 https://www.imdb.com/title/tt14830582/
◎豆瓣链接 https://movie.douban.com/subject/35763097/
◎片  长 88分钟
◎简  介

  A father and his daughter, suffering from major hearing loss, arrive at a construction site for work. They are soon taken hostage by a dangerous couple, and must work together to outsmart their captors and survive the night.
  1. Video
  2. ID                                       : 1
  3. Format                                   : AVC
  4. Format/Info                              : Advanced Video Codec
  5. Format profile                           : [email protected]
  6. Format settings                          : CABAC / 5 Ref Frames
  7. Format settings, CABAC                   : Yes
  8. Format settings, Reference frames        : 5 frames
  9. Codec ID                                 : V_MPEG4/ISO/AVC
  10. Duration                                 : 1 h 29 min
  11. Bit rate                                 : 9 491 kb/s
  12. Width                                    : 1 920 pixels
  13. Height                                   : 804 pixels
  14. Display aspect ratio                     : 2.40:1
  15. Frame rate mode                          : Constant
  16. Frame rate                               : 23.976 (24000/1001/189150) FPS
  17. Color space                              : YUV
  18. Chroma subsampling                       : 4:2:0
  19. Bit depth                                : 8 bits
  20. Scan type                                : Progressive
  21. Bits/(Pixel*Frame)                       : 0.256
  22. Stream size                              : 5.94 GiB (74%)
  23. Default                                  : Yes
  24. Forced                                   : No
  25. Audio
  26. ID                                       : 2
  27. ID in the original source medium         : 4352 (0x1100)
  28. Format                                   : DTS XLL
  29. Format/Info                              : Digital Theater Systems
  30. Commercial name                          : DTS-HD Master Audio
  31. Codec ID                                 : A_DTS
  32. Duration                                 : 1 h 29 min
  33. Bit rate mode                            : Variable
  34. Bit rate                                 : 3 373 kb/s
  35. Channel(s)                               : 6 channels
  36. Channel layout                           : C L R Ls Rs LFE
  37. Sampling rate                            : 48.0 kHz
  38. Frame rate                               : 93.750 FPS (512 SPF)
  39. Bit depth                                : 24 bits
  40. Compression mode                         : Lossless
  41. Stream size                              : 2.11 GiB (26%)
  42. Title                                    : DTS-HD MA 5.1
  43. Language                                 : English
  44. Default                                  : Yes
  45. Forced                                   : No
  46. Original source medium                   : Blu-ray
  47. Text #1
  48. ID                                       : 3
  49. Format                                   : UTF-8
  50. Codec ID                                 : S_TEXT/UTF8
  51. Codec ID/Info                            : UTF-8 Plain Text
  52. Duration                                 : 1 h 25 min
  53. Bit rate                                 : 67 b/s
  54. Frame rate                               : 0.252 FPS
  55. Count of elements                        : 1299
  56. Stream size                              : 42.7 KiB (0%)
  57. Language                                 : English
  58. Default                                  : Yes
  59. Forced                                   : No
  60. Text #2
  61. ID                                       : 4
  62. Format                                   : UTF-8
  63. Codec ID                                 : S_TEXT/UTF8
  64. Codec ID/Info                            : UTF-8 Plain Text
  65. Duration                                 : 1 h 25 min
  66. Bit rate                                 : 77 b/s
  67. Frame rate                               : 0.285 FPS
  68. Count of elements                        : 1468
  69. Stream size                              : 48.8 KiB (0%)
  70. Title                                    : SDH
  71. Language                                 : English
  72. Default                                  : No
  73. Forced                                   : No
  74. Text #3
  75. ID                                       : 5
  76. ID in the original source medium         : 4608 (0x1200)
  77. Format                                   : PGS
  78. Muxing mode                              : zlib
  79. Codec ID                                 : S_HDMV/PGS
  80. Codec ID/Info                            : Picture based subtitle format used on BDs/HD-DVDs
  81. Duration                                 : 1 h 25 min
  82. Bit rate                                 : 47.4 kb/s
  83. Frame rate                               : 0.577 FPS
  84. Count of elements                        : 2974
  85. Stream size                              : 29.1 MiB (0%)
  86. Language                                 : English
  87. Default                                  : No
  88. Forced                                   : No
  89. Original source medium                   : Blu-ray
  90. Text #4
  91. ID                                       : 6
  92. ID in the original source medium         : 4609 (0x1201)
  93. Format                                   : PGS
  94. Muxing mode                              : zlib
  95. Codec ID                                 : S_HDMV/PGS
  96. Codec ID/Info                            : Picture based subtitle format used on BDs/HD-DVDs
  97. Duration                                 : 1 h 23 min
  98. Bit rate                                 : 34.3 kb/s
  99. Frame rate                               : 0.502 FPS
  100. Count of elements                        : 2512
  101. Stream size                              : 20.5 MiB (0%)
  102. Language                                 : Spanish
  103. Default                                  : No
  104. Forced                                   : No
  105. Original source medium                   : Blu-ray
  106. Menu
  107. 00:00:00.000                             : en:Chapter 01
  108. 00:07:09.637                             : en:Chapter 02
  109. 00:14:00.089                             : en:Chapter 03
  110. 00:16:44.878                             : en:Chapter 04
  111. 00:20:28.977                             : en:Chapter 05
  112. 00:25:25.732                             : en:Chapter 06
  113. 00:29:19.424                             : en:Chapter 07
  114. 00:36:13.337                             : en:Chapter 08
  115. 00:44:30.084                             : en:Chapter 09
  116. 00:48:35.913                             : en:Chapter 10
  117. 00:54:05.533                             : en:Chapter 11
  118. 00:59:53.673                             : en:Chapter 12
  119. 01:05:28.424                             : en:Chapter 13
  120. 01:12:33.098                             : en:Chapter 14
  121. 01:17:43.116                             : en:Chapter 15
  122. 01:24:13.256                             : en:Chapter 16
复制代码




                                       
                                       

                                       
                                       
                                       




回复

使用道具 举报

懒得打字嘛,点击右侧快捷回复 【右侧内容,后台自定义】
您需要登录后才可以回帖 登录 | 立即加入

本版积分规则

Copyright © 2024 Comsenz Inc. Powered by 蓝光电影网

本站内容由用户自主分享和转载自互联网,转载目的在于传递更多信息,并不代表本网赞同其观点和对其真实性负责。

如有侵权、违反国家法律政策行为,请联系我们,我们会第一时间及时清除和处理!

举报反馈邮箱:4k1080.com@gmail.com

快速回复 返回顶部 返回列表