找回密码

查看: 1641|回复: 0

[剧情] 套装 The.Outfit.2022.1080p.BluRay.REMUX.AVC.DTS-HD.MA.TrueHD.7.1.Atmos-FGT 35.16GB

[复制链接]
蓝光币
1840
发表于 2022-9-1 15:36:13 | 显示全部楼层 |阅读模式


◎标  题 套装
◎译  名 誓不垂头
◎片  名 The Outfit
◎年  代 2022
◎产  地 美国
◎类  别 剧情 / 惊悚 / 犯罪
◎语  言 英语
◎上映日期 2022-02-14(柏林电影节) / 2022-03-18(美国)
◎IMDb评分 7.1/10 (16993人评价)
◎IMDb链接 https://www.imdb.com/title/tt14114802/
◎豆瓣评分 7.9/10 (33146人评价)
◎豆瓣链接 https://movie.douban.com/subject/35372415/
◎片  长 106分钟
◎导  演 格拉汉姆·摩尔 Graham Moore
◎编  剧 乔纳森·麦克莱恩 Johnathan McClain
       格拉汉姆·摩尔 Graham Moore
◎演  员 马克·里朗斯 Mark Rylance
       佐伊·达奇 Zoey Deutch
       迪伦·奥布莱恩 Dylan O'Brien
       强尼·弗林 Johnny Flynn
       妮基·阿姆卡-伯德 Nikki Amuka-Bird
       西蒙·拉塞尔·比尔 Simon Russell Beale
       阿伦·梅迪扎德 Alan Mehdizadeh
       布赖恩·罗杰 Brian Rodger
       本·布朗宁 Ben Browning
◎简  介

  雷纳德(马克·里朗斯 Mark Rylance 饰)是一位技术精湛的成衣,一场火灾以后,他分开了伦敦,来到芝加哥,在这里经营着一间属于自己的成衣店。店里的员工除了雷纳德自己外,还有一个名叫梅布尔(佐伊·达奇 Zoey Deutch 饰)的姑娘,梅布尔的父亲是一个污名昭著的无赖,背负着父亲的“盛名”,梅布尔下定决心要攒够钱,去看一看这个龌龊黑暗的街区之外的天下。                                    
                                一天深夜,黑帮大佬罗伊(西蒙·拉塞尔·比尔 Simon Russell Beale 饰)的儿子里奇(迪伦·奥布莱恩 Dylan O'Brien 饰)和他的副手弗朗西斯(强尼·弗林 Johnny Flynn 饰)闯入了店中,里奇身受重伤,在弗朗西斯的威胁之下,雷纳德处置了里奇的伤口,将他从灭亡线上救了返来,但与此同时,他也被卷入了这个黑帮家属的纷争当中。
  1. Video
  2. ID                                       : 1
  3. ID in the original source medium         : 4113 (0x1011)
  4. Format                                   : AVC
  5. Format/Info                              : Advanced Video Codec
  6. Format profile                           : [email protected]
  7. Format settings                          : CABAC / 2 Ref Frames
  8. Format settings, CABAC                   : Yes
  9. Format settings, Reference frames        : 2 frames
  10. Format settings, GOP                     : M=1, N=10
  11. Codec ID                                 : V_MPEG4/ISO/AVC
  12. Duration                                 : 1 h 44 min
  13. Bit rate mode                            : Variable
  14. Bit rate                                 : 36.7 Mb/s
  15. Width                                    : 1 920 pixels
  16. Height                                   : 1 080 pixels
  17. Display aspect ratio                     : 16:9
  18. Frame rate mode                          : Constant
  19. Frame rate                               : 23.976 (24000/1001/189150) FPS
  20. Color space                              : YUV
  21. Chroma subsampling                       : 4:2:0
  22. Bit depth                                : 8 bits
  23. Scan type                                : Progressive
  24. Bits/(Pixel*Frame)                       : 0.739
  25. Stream size                              : 26.9 GiB (77%)
  26. Language                                 : English
  27. Default                                  : No
  28. Forced                                   : No
  29. Original source medium                   : Blu-ray
  30. Audio #1
  31. ID                                       : 2
  32. ID in the original source medium         : 4352 (0x1100)
  33. Format                                   : MLP FBA 16-ch
  34. Format/Info                              : Meridian Lossless Packing FBA with 16-channel presentation
  35. Commercial name                          : Dolby TrueHD with Dolby Atmos
  36. Codec ID                                 : A_TRUEHD
  37. Duration                                 : 1 h 44 min
  38. Bit rate mode                            : Variable
  39. Bit rate                                 : 3 133 kb/s
  40. Maximum bit rate                         : 4 392 kb/s
  41. Channel(s)                               : 8 channels
  42. Channel layout                           : L R C LFE Ls Rs Lb Rb
  43. Sampling rate                            : 48.0 kHz
  44. Frame rate                               : 1 200.000 FPS (40 SPF)
  45. Bit depth                                : 24 bits
  46. Compression mode                         : Lossless
  47. Stream size                              : 2.30 GiB (7%)
  48. Title                                    : TrueHD 7.1 Atmos
  49. Language                                 : English
  50. Default                                  : Yes
  51. Forced                                   : No
  52. Original source medium                   : Blu-ray
  53. Number of dynamic objects                : 13
  54. Bed channel count                        : 1 channel
  55. Bed channel configuration                : LFE
  56. Audio #2
  57. ID                                       : 3
  58. Format                                   : DTS XLL
  59. Format/Info                              : Digital Theater Systems
  60. Commercial name                          : DTS-HD Master Audio
  61. Codec ID                                 : A_DTS
  62. Duration                                 : 1 h 44 min
  63. Bit rate mode                            : Variable
  64. Bit rate                                 : 4 073 kb/s
  65. Channel(s)                               : 8 channels
  66. Channel layout                           : C L R LFE Lb Rb Lss Rss
  67. Sampling rate                            : 48.0 kHz
  68. Frame rate                               : 93.750 FPS (512 SPF)
  69. Bit depth                                : 24 bits
  70. Compression mode                         : Lossless
  71. Stream size                              : 2.99 GiB (8%)
  72. Title                                    : DTS-HD MA 7.1
  73. Language                                 : English
  74. Default                                  : No
  75. Forced                                   : No
  76. Audio #3
  77. ID                                       : 4
  78. ID in the original source medium         : 4352 (0x1100)
  79. Format                                   : AC-3
  80. Format/Info                              : Audio Coding 3
  81. Commercial name                          : Dolby Digital
  82. Codec ID                                 : A_AC3
  83. Duration                                 : 1 h 44 min
  84. Bit rate mode                            : Constant
  85. Bit rate                                 : 640 kb/s
  86. Channel(s)                               : 6 channels
  87. Channel layout                           : L R C LFE Ls Rs
  88. Sampling rate                            : 48.0 kHz
  89. Frame rate                               : 31.250 FPS (1536 SPF)
  90. Compression mode                         : Lossy
  91. Stream size                              : 480 MiB (1%)
  92. Title                                    : DD 5.1
  93. Language                                 : English
  94. Service kind                             : Complete Main
  95. Default                                  : No
  96. Forced                                   : No
  97. Original source medium                   : Blu-ray
  98. Audio #4
  99. ID                                       : 5
  100. ID in the original source medium         : 4353 (0x1101)
  101. Format                                   : DTS XLL
  102. Format/Info                              : Digital Theater Systems
  103. Commercial name                          : DTS-HD Master Audio
  104. Codec ID                                 : A_DTS
  105. Duration                                 : 1 h 44 min
  106. Bit rate mode                            : Variable
  107. Bit rate                                 : 1 525 kb/s
  108. Channel(s)                               : 2 channels
  109. Channel layout                           : L R
  110. Sampling rate                            : 48.0 kHz
  111. Frame rate                               : 93.750 FPS (512 SPF)
  112. Bit depth                                : 24 bits
  113. Compression mode                         : Lossless
  114. Stream size                              : 1.12 GiB (3%)
  115. Title                                    : DTS-HD MA 2.0
  116. Language                                 : English
  117. Default                                  : No
  118. Forced                                   : No
  119. Original source medium                   : Blu-ray
  120. Audio #5
  121. ID                                       : 6
  122. ID in the original source medium         : 4353 (0x1101)
  123. Format                                   : DTS
  124. Format/Info                              : Digital Theater Systems
  125. Codec ID                                 : A_DTS
  126. Duration                                 : 1 h 44 min
  127. Bit rate mode                            : Constant
  128. Bit rate                                 : 768 kb/s
  129. Channel(s)                               : 6 channels
  130. Channel layout                           : C L R Ls Rs LFE
  131. Sampling rate                            : 48.0 kHz
  132. Frame rate                               : 93.750 FPS (512 SPF)
  133. Bit depth                                : 24 bits
  134. Compression mode                         : Lossy
  135. Stream size                              : 577 MiB (2%)
  136. Title                                    : DTS 5.1
  137. Language                                 : Spanish
  138. Default                                  : No
  139. Forced                                   : No
  140. Original source medium                   : Blu-ray
  141. Audio #6
  142. ID                                       : 7
  143. ID in the original source medium         : 4354 (0x1102)
  144. Format                                   : DTS
  145. Format/Info                              : Digital Theater Systems
  146. Codec ID                                 : A_DTS
  147. Duration                                 : 1 h 44 min
  148. Bit rate mode                            : Constant
  149. Bit rate                                 : 768 kb/s
  150. Channel(s)                               : 6 channels
  151. Channel layout                           : C L R Ls Rs LFE
  152. Sampling rate                            : 48.0 kHz
  153. Frame rate                               : 93.750 FPS (512 SPF)
  154. Bit depth                                : 24 bits
  155. Compression mode                         : Lossy
  156. Stream size                              : 577 MiB (2%)
  157. Title                                    : DTS 5.1
  158. Language                                 : French
  159. Default                                  : No
  160. Forced                                   : No
  161. Original source medium                   : Blu-ray
  162. Audio #7
  163. ID                                       : 8
  164. ID in the original source medium         : 4355 (0x1103)
  165. Format                                   : AC-3
  166. Format/Info                              : Audio Coding 3
  167. Commercial name                          : Dolby Digital
  168. Codec ID                                 : A_AC3
  169. Duration                                 : 1 h 44 min
  170. Bit rate mode                            : Constant
  171. Bit rate                                 : 192 kb/s
  172. Channel(s)                               : 2 channels
  173. Channel layout                           : L R
  174. Sampling rate                            : 48.0 kHz
  175. Frame rate                               : 31.250 FPS (1536 SPF)
  176. Compression mode                         : Lossy
  177. Stream size                              : 144 MiB (0%)
  178. Title                                    : DD 2.0
  179. Language                                 : English
  180. Service kind                             : Complete Main
  181. Default                                  : No
  182. Forced                                   : No
  183. Original source medium                   : Blu-ray
  184. Text #1
  185. ID                                       : 9
  186. Format                                   : UTF-8
  187. Codec ID                                 : S_TEXT/UTF8
  188. Codec ID/Info                            : UTF-8 Plain Text
  189. Duration                                 : 1 h 38 min
  190. Bit rate                                 : 58 b/s
  191. Frame rate                               : 0.246 FPS
  192. Count of elements                        : 1455
  193. Stream size                              : 42.2 KiB (0%)
  194. Language                                 : English
  195. Default                                  : Yes
  196. Forced                                   : No
  197. Text #2
  198. ID                                       : 10
  199. Format                                   : UTF-8
  200. Codec ID                                 : S_TEXT/UTF8
  201. Codec ID/Info                            : UTF-8 Plain Text
  202. Duration                                 : 1 h 44 min
  203. Bit rate                                 : 60 b/s
  204. Frame rate                               : 0.263 FPS
  205. Count of elements                        : 1651
  206. Stream size                              : 46.8 KiB (0%)
  207. Title                                    : SDH
  208. Language                                 : English
  209. Default                                  : No
  210. Forced                                   : No
  211. Text #3
  212. ID                                       : 11
  213. ID in the original source medium         : 4608 (0x1200)
  214. Format                                   : PGS
  215. Muxing mode                              : zlib
  216. Codec ID                                 : S_HDMV/PGS
  217. Codec ID/Info                            : Picture based subtitle format used on BDs/HD-DVDs
  218. Duration                                 : 1 h 39 min
  219. Bit rate                                 : 43.7 kb/s
  220. Frame rate                               : 0.476 FPS
  221. Count of elements                        : 2840
  222. Stream size                              : 31.0 MiB (0%)
  223. Language                                 : English
  224. Default                                  : No
  225. Forced                                   : No
  226. Original source medium                   : Blu-ray
  227. Text #4
  228. ID                                       : 12
  229. ID in the original source medium         : 4609 (0x1201)
  230. Format                                   : PGS
  231. Muxing mode                              : zlib
  232. Codec ID                                 : S_HDMV/PGS
  233. Codec ID/Info                            : Picture based subtitle format used on BDs/HD-DVDs
  234. Duration                                 : 1 h 44 min
  235. Bit rate                                 : 33.0 kb/s
  236. Frame rate                               : 0.384 FPS
  237. Count of elements                        : 2408
  238. Stream size                              : 24.6 MiB (0%)
  239. Language                                 : Spanish
  240. Default                                  : No
  241. Forced                                   : No
  242. Original source medium                   : Blu-ray
  243. Text #5
  244. ID                                       : 13
  245. ID in the original source medium         : 4610 (0x1202)
  246. Format                                   : PGS
  247. Muxing mode                              : zlib
  248. Codec ID                                 : S_HDMV/PGS
  249. Codec ID/Info                            : Picture based subtitle format used on BDs/HD-DVDs
  250. Duration                                 : 1 h 44 min
  251. Bit rate                                 : 35.9 kb/s
  252. Frame rate                               : 0.388 FPS
  253. Count of elements                        : 2432
  254. Stream size                              : 26.8 MiB (0%)
  255. Language                                 : French
  256. Default                                  : No
  257. Forced                                   : No
  258. Original source medium                   : Blu-ray
  259. Text #6
  260. ID                                       : 14
  261. ID in the original source medium         : 4611 (0x1203)
  262. Format                                   : PGS
  263. Muxing mode                              : zlib
  264. Codec ID                                 : S_HDMV/PGS
  265. Codec ID/Info                            : Picture based subtitle format used on BDs/HD-DVDs
  266. Duration                                 : 1 h 31 min
  267. Bit rate                                 : 60 b/s
  268. Frame rate                               : 0.001 FPS
  269. Count of elements                        : 4
  270. Stream size                              : 40.3 KiB (0%)
  271. Language                                 : Spanish
  272. Default                                  : No
  273. Forced                                   : No
  274. Original source medium                   : Blu-ray
  275. Text #7
  276. ID                                       : 15
  277. ID in the original source medium         : 4612 (0x1204)
  278. Format                                   : PGS
  279. Muxing mode                              : zlib
  280. Codec ID                                 : S_HDMV/PGS
  281. Codec ID/Info                            : Picture based subtitle format used on BDs/HD-DVDs
  282. Duration                                 : 1 h 44 min
  283. Bit rate                                 : 85 b/s
  284. Frame rate                               : 0.002 FPS
  285. Count of elements                        : 10
  286. Stream size                              : 65.1 KiB (0%)
  287. Language                                 : French
  288. Default                                  : No
  289. Forced                                   : No
  290. Original source medium                   : Blu-ray
  291. Menu
  292. 00:00:00.000                             : en:Chapter 01
  293. 00:05:45.928                             : en:Chapter 02
  294. 00:10:15.990                             : en:Chapter 03
  295. 00:15:10.659                             : en:Chapter 04
  296. 00:18:41.745                             : en:Chapter 05
  297. 00:20:57.130                             : en:Chapter 06
  298. 00:28:42.429                             : en:Chapter 07
  299. 00:32:40.583                             : en:Chapter 08
  300. 00:36:29.145                             : en:Chapter 09
  301. 00:40:48.988                             : en:Chapter 10
  302. 00:43:23.601                             : en:Chapter 11
  303. 00:50:55.886                             : en:Chapter 12
  304. 00:57:51.384                             : en:Chapter 13
  305. 01:04:17.270                             : en:Chapter 14
  306. 01:09:23.075                             : en:Chapter 15
  307. 01:14:58.202                             : en:Chapter 16
  308. 01:21:42.564                             : en:Chapter 17
  309. 01:27:56.604                             : en:Chapter 18
  310. 01:32:29.460                             : en:Chapter 19
  311. 01:39:29.672                             : en:Chapter 20
复制代码




                                       
                                       

                                       
                                       
                                       




回复

使用道具 举报

懒得打字嘛,点击右侧快捷回复 【右侧内容,后台自定义】
您需要登录后才可以回帖 登录 | 立即加入

本版积分规则

Copyright © 2024 Comsenz Inc. Powered by 蓝光电影网

本站内容由用户自主分享和转载自互联网,转载目的在于传递更多信息,并不代表本网赞同其观点和对其真实性负责。

如有侵权、违反国家法律政策行为,请联系我们,我们会第一时间及时清除和处理!

举报反馈邮箱:4k1080.com@gmail.com

快速回复 返回顶部 返回列表