找回密码

查看: 761|回复: 1

[惊悚] 恶魔的光火.Prey.for.the.Devil.2022.720p.BluRay.x264-PiGNUS 4.36GB

[复制链接]
蓝光币
1840
发表于 2023-1-6 18:12:01 | 显示全部楼层 |阅读模式


◎标  题 恶魔的光火
◎译  名 鬼祷(台) / 魔鬼之光(港) / The Devil's Light
◎片  名 Prey for the Devil
◎年  代 2022
◎产  地 美国
◎类  别 惊悚 / 可骇
◎语  言 英语
◎上映日期 2022-10-26(法国) / 2022-10-28(美国)
◎IMDb评分 5.2/10 (7710人评价)
◎IMDb链接 https://www.imdb.com/title/tt9271672/
◎豆瓣评分 5.4/10 (827人评价)
◎豆瓣链接 https://movie.douban.com/subject/35053657/
◎片  长 93分钟
◎导  演 丹尼尔·斯坦 Daniel Stamm
◎编  剧 罗伯特·扎皮亚 Robert Zappia
       托德·R·琼斯 Todd R. Jones
       厄尔·里奇·琼斯 Earl Richey Jones
◎演  员 杰奎琳·拜尔斯 Jacqueline Byers
       维吉妮娅·马德森 Virginia Madsen
       科林·萨蒙 Colin Salmon
       尼古拉斯·瑞夫 Nicholas Ralph
       本·克劳斯 Ben Cross
       克里斯蒂安·纳瓦罗 Christian Navarro
       黛博拉·热切娃 Debora Zhecheva
       汤姆·福布斯 Tom Forbes
       丽莎·帕弗瑞 Lisa Palfrey
       波西·泰勒 Posy Taylor
       沃利扎·比尼夫 Velizar Binev
       欧文·戴维斯 Owen Davis
       雅娜·梅里诺娃 Yana Marinova
       亚妮娜·泰什娃 Yanina Kasheva
       马丁·塔斯科夫 Martin Taskov
       内森·巴尔 Nathan Barr
◎简  介
  加入教会未几的年轻修女安,深信替人驱魔是她天生的使命,但是天主教会却有个令她不满的不成文传统:只要神父可以停止驱魔仪式。幸亏,安和一个认可她驱魔天赋的导师相遇,因此破例让她介入并旁观驱魔课程,成为首位进修驱魔仪式的修女。安很快地展现出在驱魔上的才能,与此同时,众人却发现她与恶灵有着一段不成告人的曩昔……
  1. Video
  2. ID                                       : 1
  3. Format                                   : AVC
  4. Format/Info                              : Advanced Video Codec
  5. Format profile                           : High@L4.1
  6. Format settings                          : CABAC / 8 Ref Frames
  7. Format settings, CABAC                   : Yes
  8. Format settings, Reference frames        : 8 frames
  9. Codec ID                                 : V_MPEG4/ISO/AVC
  10. Duration                                 : 1 h 33 min
  11. Bit rate                                 : 5 914 kb/s
  12. Width                                    : 1 280 pixels
  13. Height                                   : 536 pixels
  14. Display aspect ratio                     : 2.40:1
  15. Frame rate mode                          : Constant
  16. Frame rate                               : 23.976 (24000/1001) FPS
  17. Color space                              : YUV
  18. Chroma subsampling                       : 4:2:0
  19. Bit depth                                : 8 bits
  20. Scan type                                : Progressive
  21. Bits/(Pixel*Frame)                       : 0.359
  22. Stream size                              : 3.85 GiB (88%)
  23. Writing library                          : x264 core 164 r3103 941cae6
  24. Encoding settings                        : cabac=1 / ref=8 / deblock=1:-3:-3 / analyse=0x3:0x133 / me=umh / subme=9 / psy=1 / psy_rd=1.00:0.00 / mixed_ref=1 / me_range=16 / chroma_me=1 / trellis=2 / 8x8dct=1 / cqm=0 / deadzone=21,11 / fast_pskip=1 / chroma_qp_offset=-2 / threads=17 / lookahead_threads=1 / sliced_threads=0 / nr=0 / decimate=1 / interlaced=0 / bluray_compat=0 / constrained_intra=0 / bframes=3 / b_pyramid=2 / b_adapt=2 / b_bias=0 / direct=3 / weightb=1 / open_gop=0 / weightp=2 / keyint=250 / keyint_min=23 / scenecut=40 / intra_refresh=0 / rc_lookahead=60 / rc=crf / mbtree=1 / crf=14.0 / qcomp=0.60 / qpmin=0 / qpmax=69 / qpstep=4 / ip_ratio=1.40 / aq=1:1.00
  25. Default                                  : Yes
  26. Forced                                   : No
  27. Audio #1
  28. ID                                       : 2
  29. Format                                   : AC-3
  30. Format/Info                              : Audio Coding 3
  31. Commercial name                          : Dolby Digital
  32. Codec ID                                 : A_AC3
  33. Duration                                 : 1 h 33 min
  34. Bit rate mode                            : Constant
  35. Bit rate                                 : 640 kb/s
  36. Channel(s)                               : 6 channels
  37. Channel layout                           : L R C LFE Ls Rs
  38. Sampling rate                            : 48.0 kHz
  39. Frame rate                               : 31.250 FPS (1536 SPF)
  40. Compression mode                         : Lossy
  41. Stream size                              : 426 MiB (10%)
  42. Language                                 : English
  43. Service kind                             : Complete Main
  44. Default                                  : Yes
  45. Forced                                   : No
  46. Audio #2
  47. ID                                       : 3
  48. Format                                   : AAC LC
  49. Format/Info                              : Advanced Audio Codec Low Complexity
  50. Codec ID                                 : A_AAC-2
  51. Duration                                 : 1 h 33 min
  52. Bit rate                                 : 102 kb/s
  53. Channel(s)                               : 2 channels
  54. Channel layout                           : L R
  55. Sampling rate                            : 48.0 kHz
  56. Frame rate                               : 46.875 FPS (1024 SPF)
  57. Compression mode                         : Lossy
  58. Delay relative to video                  : 9 ms
  59. Stream size                              : 67.9 MiB (2%)
  60. Title                                    : Commentary
  61. Language                                 : English
  62. Default                                  : No
  63. Forced                                   : No
  64. Text #1
  65. ID                                       : 4
  66. Format                                   : PGS
  67. Muxing mode                              : zlib
  68. Codec ID                                 : S_HDMV/PGS
  69. Codec ID/Info                            : Picture based subtitle format used on BDs/HD-DVDs
  70. Duration                                 : 1 h 26 min
  71. Bit rate                                 : 31.0 kb/s
  72. Count of elements                        : 2212
  73. Stream size                              : 19.2 MiB (0%)
  74. Title                                    : English SDH
  75. Language                                 : English
  76. Default                                  : No
  77. Forced                                   : No
  78. Text #2
  79. ID                                       : 5
  80. Format                                   : PGS
  81. Muxing mode                              : zlib
  82. Codec ID                                 : S_HDMV/PGS
  83. Codec ID/Info                            : Picture based subtitle format used on BDs/HD-DVDs
  84. Duration                                 : 1 h 26 min
  85. Bit rate                                 : 23.5 kb/s
  86. Count of elements                        : 1508
  87. Stream size                              : 14.4 MiB (0%)
  88. Title                                    : French
  89. Language                                 : French
  90. Default                                  : No
  91. Forced                                   : No
  92. Text #3
  93. ID                                       : 6
  94. Format                                   : PGS
  95. Muxing mode                              : zlib
  96. Codec ID                                 : S_HDMV/PGS
  97. Codec ID/Info                            : Picture based subtitle format used on BDs/HD-DVDs
  98. Duration                                 : 1 h 32 min
  99. Bit rate                                 : 21.2 kb/s
  100. Count of elements                        : 1600
  101. Stream size                              : 14.0 MiB (0%)
  102. Title                                    : Spanish
  103. Language                                 : Spanish
  104. Default                                  : No
  105. Forced                                   : No
  106. Menu
  107. 00:00:00.000                             : en:Chapter 01
  108. 00:03:38.510                             : en:Chapter 02
  109. 00:11:02.996                             : en:Chapter 03
  110. 00:17:43.396                             : en:Chapter 04
  111. 00:23:15.728                             : en:Chapter 05
  112. 00:31:54.621                             : en:Chapter 06
  113. 00:35:29.127                             : en:Chapter 07
  114. 00:42:59.327                             : en:Chapter 08
  115. 00:47:39.523                             : en:Chapter 09
  116. 00:55:41.797                             : en:Chapter 10
  117. 00:59:15.051                             : en:Chapter 11
  118. 01:04:20.398                             : en:Chapter 12
  119. 01:07:03.353                             : en:Chapter 13
  120. 01:11:11.976                             : en:Chapter 14
  121. 01:20:41.086                             : en:Chapter 15
  122. 01:24:56.508                             : en:Chapter 16
  123. 01:33:09.375                             : en:Chapter 17
复制代码









回复

使用道具 举报

蓝光币
199
发表于 2023-6-12 23:11:17 | 显示全部楼层
感谢LZ分享下载~
回复

使用道具 举报

懒得打字嘛,点击右侧快捷回复 【右侧内容,后台自定义】
您需要登录后才可以回帖 登录 | 立即加入

本版积分规则

Copyright © 2024 Comsenz Inc. Powered by 蓝光电影网

本站内容由用户自主分享和转载自互联网,转载目的在于传递更多信息,并不代表本网赞同其观点和对其真实性负责。

如有侵权、违反国家法律政策行为,请联系我们,我们会第一时间及时清除和处理!

举报反馈邮箱:4k1080.com@gmail.com

快速回复 返回顶部 返回列表