找回密码

查看: 1685|回复: 0

[2160p-WEB] LiSA:又是美好的一天[中文字幕].LiSA.Another.Great.Day.2022.JAPANESE.2160p.NF.WEB-DL.x265.10bit.HDR.DDP5.1-MARKISGAE 9.78GB

[复制链接]
蓝光币
1840
发表于 2023-1-6 18:13:10 | 显示全部楼层 |阅读模式


◎标  题 LiSA:又是美好的一天
◎片  名 LiSA Another Great Day
◎年  代 2022
◎产  地 日本
◎类  别 记载片 / 音乐
◎语  言 日语
◎上映日期 2022-10-18(日本收集)
◎IMDb评分 7.5/10 (67人评价)
◎IMDb链接 https://www.imdb.com/title/tt19112110/
◎豆瓣评分 7.9/10 (172人评价)
◎豆瓣链接 https://movie.douban.com/subject/35818116/
◎简  介
  日本歌手 LiSA 因演唱《鬼灭之刃》主题曲《红莲华》及其他动漫主题曲而走红乐坛。本片为庆贺她出道 10 周年之作,除了赞美她身为女性顽强自力的一面,也捕捉她在演艺生活最懦弱的时辰,并收录多首著名动漫主题曲的出色表演及全新巡回演唱会片断。
  1. Video
  2. ID                                       : 1
  3. Format                                   : HEVC
  4. Format/Info                              : High Efficiency Video Coding
  5. Format profile                           : Main 10@L5@Main
  6. HDR format                               : Dolby Vision, Version 1.0, dvhe.08.06, BL+RPU, HDR10 compatible / SMPTE ST 2086, HDR10 compatible
  7. Codec ID                                 : V_MPEGH/ISO/HEVC
  8. Duration                                 : 1 h 37 min
  9. Bit rate                                 : 13.7 Mb/s
  10. Width                                    : 3 840 pixels
  11. Height                                   : 2 160 pixels
  12. Display aspect ratio                     : 16:9
  13. Frame rate mode                          : Constant
  14. Frame rate                               : 23.976 (24000/1001) FPS
  15. Color space                              : YUV
  16. Chroma subsampling                       : 4:2:0 (Type 2)
  17. Bit depth                                : 10 bits
  18. Bits/(Pixel*Frame)                       : 0.069
  19. Stream size                              : 9.34 GiB (95%)
  20. Language                                 : Japanese
  21. Default                                  : Yes
  22. Forced                                   : No
  23. Color range                              : Limited
  24. Color primaries                          : BT.2020
  25. Transfer characteristics                 : PQ
  26. Matrix coefficients                      : BT.2020 non-constant
  27. Mastering display color primaries        : Display P3
  28. Mastering display luminance              : min: 0.0001 cd/m2, max: 1000 cd/m2
  29. Maximum Content Light Level              : 1032 cd/m2
  30. Maximum Frame-Average Light Level        : 486 cd/m2
  31. Audio
  32. ID                                       : 2
  33. Format                                   : E-AC-3
  34. Format/Info                              : Enhanced AC-3
  35. Commercial name                          : Dolby Digital Plus
  36. Codec ID                                 : A_EAC3
  37. Duration                                 : 1 h 37 min
  38. Bit rate mode                            : Constant
  39. Bit rate                                 : 640 kb/s
  40. Channel(s)                               : 6 channels
  41. Channel layout                           : L R C LFE Ls Rs
  42. Sampling rate                            : 48.0 kHz
  43. Frame rate                               : 31.250 FPS (1536 SPF)
  44. Compression mode                         : Lossy
  45. Stream size                              : 447 MiB (4%)
  46. Language                                 : Japanese
  47. Service kind                             : Complete Main
  48. Default                                  : Yes
  49. Forced                                   : No
  50. Text #1
  51. ID                                       : 3
  52. Format                                   : UTF-8
  53. Codec ID                                 : S_TEXT/UTF8
  54. Codec ID/Info                            : UTF-8 Plain Text
  55. Duration                                 : 1 h 37 min
  56. Bit rate                                 : 95 b/s
  57. Frame rate                               : 0.285 FPS
  58. Count of elements                        : 1667
  59. Stream size                              : 68.2 KiB (0%)
  60. Language                                 : Japanese
  61. Default                                  : No
  62. Forced                                   : No
  63. Text #2
  64. ID                                       : 4
  65. Format                                   : UTF-8
  66. Codec ID                                 : S_TEXT/UTF8
  67. Codec ID/Info                            : UTF-8 Plain Text
  68. Duration                                 : 1 h 37 min
  69. Bit rate                                 : 107 b/s
  70. Frame rate                               : 0.286 FPS
  71. Count of elements                        : 1674
  72. Stream size                              : 76.6 KiB (0%)
  73. Title                                    : SDH
  74. Language                                 : Japanese
  75. Default                                  : No
  76. Forced                                   : No
  77. Text #3
  78. ID                                       : 5
  79. Format                                   : UTF-8
  80. Codec ID                                 : S_TEXT/UTF8
  81. Codec ID/Info                            : UTF-8 Plain Text
  82. Duration                                 : 1 h 37 min
  83. Bit rate                                 : 93 b/s
  84. Frame rate                               : 0.202 FPS
  85. Count of elements                        : 1182
  86. Stream size                              : 66.7 KiB (0%)
  87. Language                                 : Arabic
  88. Default                                  : No
  89. Forced                                   : No
  90. Text #4
  91. ID                                       : 6
  92. Format                                   : UTF-8
  93. Codec ID                                 : S_TEXT/UTF8
  94. Codec ID/Info                            : UTF-8 Plain Text
  95. Duration                                 : 1 h 37 min
  96. Bit rate                                 : 61 b/s
  97. Frame rate                               : 0.200 FPS
  98. Count of elements                        : 1170
  99. Stream size                              : 43.6 KiB (0%)
  100. Language                                 : Czech
  101. Default                                  : No
  102. Forced                                   : No
  103. Text #5
  104. ID                                       : 7
  105. Format                                   : UTF-8
  106. Codec ID                                 : S_TEXT/UTF8
  107. Codec ID/Info                            : UTF-8 Plain Text
  108. Duration                                 : 1 h 37 min
  109. Bit rate                                 : 58 b/s
  110. Frame rate                               : 0.201 FPS
  111. Count of elements                        : 1176
  112. Stream size                              : 41.5 KiB (0%)
  113. Language                                 : Danish
  114. Default                                  : No
  115. Forced                                   : No
  116. Text #6
  117. ID                                       : 8
  118. Format                                   : UTF-8
  119. Codec ID                                 : S_TEXT/UTF8
  120. Codec ID/Info                            : UTF-8 Plain Text
  121. Duration                                 : 1 h 37 min
  122. Bit rate                                 : 65 b/s
  123. Frame rate                               : 0.202 FPS
  124. Count of elements                        : 1180
  125. Stream size                              : 46.7 KiB (0%)
  126. Language                                 : German
  127. Default                                  : No
  128. Forced                                   : No
  129. Text #7
  130. ID                                       : 9
  131. Format                                   : UTF-8
  132. Codec ID                                 : S_TEXT/UTF8
  133. Codec ID/Info                            : UTF-8 Plain Text
  134. Duration                                 : 1 h 37 min
  135. Bit rate                                 : 97 b/s
  136. Frame rate                               : 0.200 FPS
  137. Count of elements                        : 1170
  138. Stream size                              : 69.4 KiB (0%)
  139. Language                                 : Greek
  140. Default                                  : No
  141. Forced                                   : No
  142. Text #8
  143. ID                                       : 10
  144. Format                                   : UTF-8
  145. Codec ID                                 : S_TEXT/UTF8
  146. Codec ID/Info                            : UTF-8 Plain Text
  147. Duration                                 : 1 h 37 min
  148. Bit rate                                 : 58 b/s
  149. Frame rate                               : 0.199 FPS
  150. Count of elements                        : 1160
  151. Stream size                              : 41.8 KiB (0%)
  152. Language                                 : English
  153. Default                                  : No
  154. Forced                                   : No
  155. Text #9
  156. ID                                       : 11
  157. Format                                   : UTF-8
  158. Codec ID                                 : S_TEXT/UTF8
  159. Codec ID/Info                            : UTF-8 Plain Text
  160. Duration                                 : 1 h 37 min
  161. Bit rate                                 : 62 b/s
  162. Frame rate                               : 0.195 FPS
  163. Count of elements                        : 1142
  164. Stream size                              : 44.7 KiB (0%)
  165. Title                                    : Latin American
  166. Language                                 : Spanish (Latin America)
  167. Default                                  : No
  168. Forced                                   : No
  169. Text #10
  170. ID                                       : 12
  171. Format                                   : UTF-8
  172. Codec ID                                 : S_TEXT/UTF8
  173. Codec ID/Info                            : UTF-8 Plain Text
  174. Duration                                 : 1 h 37 min
  175. Bit rate                                 : 65 b/s
  176. Frame rate                               : 0.202 FPS
  177. Count of elements                        : 1182
  178. Stream size                              : 46.5 KiB (0%)
  179. Language                                 : Spanish (ES)
  180. Default                                  : No
  181. Forced                                   : No
  182. Text #11
  183. ID                                       : 13
  184. Format                                   : UTF-8
  185. Codec ID                                 : S_TEXT/UTF8
  186. Codec ID/Info                            : UTF-8 Plain Text
  187. Duration                                 : 1 h 37 min
  188. Bit rate                                 : 58 b/s
  189. Frame rate                               : 0.202 FPS
  190. Count of elements                        : 1179
  191. Stream size                              : 41.8 KiB (0%)
  192. Language                                 : Finnish
  193. Default                                  : No
  194. Forced                                   : No
  195. Text #12
  196. ID                                       : 14
  197. Format                                   : UTF-8
  198. Codec ID                                 : S_TEXT/UTF8
  199. Codec ID/Info                            : UTF-8 Plain Text
  200. Duration                                 : 1 h 37 min
  201. Bit rate                                 : 63 b/s
  202. Frame rate                               : 0.202 FPS
  203. Count of elements                        : 1179
  204. Stream size                              : 45.0 KiB (0%)
  205. Language                                 : French
  206. Default                                  : No
  207. Forced                                   : No
  208. Text #13
  209. ID                                       : 15
  210. Format                                   : UTF-8
  211. Codec ID                                 : S_TEXT/UTF8
  212. Codec ID/Info                            : UTF-8 Plain Text
  213. Duration                                 : 1 h 37 min
  214. Bit rate                                 : 85 b/s
  215. Frame rate                               : 0.201 FPS
  216. Count of elements                        : 1177
  217. Stream size                              : 61.0 KiB (0%)
  218. Language                                 : Hebrew
  219. Default                                  : No
  220. Forced                                   : No
  221. Text #14
  222. ID                                       : 16
  223. Format                                   : UTF-8
  224. Codec ID                                 : S_TEXT/UTF8
  225. Codec ID/Info                            : UTF-8 Plain Text
  226. Duration                                 : 1 h 37 min
  227. Bit rate                                 : 50 b/s
  228. Frame rate                               : 0.197 FPS
  229. Count of elements                        : 1154
  230. Stream size                              : 35.7 KiB (0%)
  231. Language                                 : Croatian
  232. Default                                  : No
  233. Forced                                   : No
  234. Text #15
  235. ID                                       : 17
  236. Format                                   : UTF-8
  237. Codec ID                                 : S_TEXT/UTF8
  238. Codec ID/Info                            : UTF-8 Plain Text
  239. Duration                                 : 1 h 37 min
  240. Bit rate                                 : 62 b/s
  241. Frame rate                               : 0.202 FPS
  242. Count of elements                        : 1180
  243. Stream size                              : 44.6 KiB (0%)
  244. Language                                 : Hungarian
  245. Default                                  : No
  246. Forced                                   : No
  247. Text #16
  248. ID                                       : 18
  249. Format                                   : UTF-8
  250. Codec ID                                 : S_TEXT/UTF8
  251. Codec ID/Info                            : UTF-8 Plain Text
  252. Duration                                 : 1 h 37 min
  253. Bit rate                                 : 62 b/s
  254. Frame rate                               : 0.202 FPS
  255. Count of elements                        : 1181
  256. Stream size                              : 44.6 KiB (0%)
  257. Language                                 : Indonesian
  258. Default                                  : No
  259. Forced                                   : No
  260. Text #17
  261. ID                                       : 19
  262. Format                                   : UTF-8
  263. Codec ID                                 : S_TEXT/UTF8
  264. Codec ID/Info                            : UTF-8 Plain Text
  265. Duration                                 : 1 h 37 min
  266. Bit rate                                 : 56 b/s
  267. Frame rate                               : 0.202 FPS
  268. Count of elements                        : 1181
  269. Stream size                              : 40.3 KiB (0%)
  270. Language                                 : Italian
  271. Default                                  : No
  272. Forced                                   : No
  273. Text #18
  274. ID                                       : 20
  275. Format                                   : UTF-8
  276. Codec ID                                 : S_TEXT/UTF8
  277. Codec ID/Info                            : UTF-8 Plain Text
  278. Duration                                 : 1 h 37 min
  279. Bit rate                                 : 67 b/s
  280. Frame rate                               : 0.203 FPS
  281. Count of elements                        : 1185
  282. Stream size                              : 48.0 KiB (0%)
  283. Language                                 : Korean
  284. Default                                  : No
  285. Forced                                   : No
  286. Text #19
  287. ID                                       : 21
  288. Format                                   : UTF-8
  289. Codec ID                                 : S_TEXT/UTF8
  290. Codec ID/Info                            : UTF-8 Plain Text
  291. Duration                                 : 1 h 37 min
  292. Bit rate                                 : 63 b/s
  293. Frame rate                               : 0.202 FPS
  294. Count of elements                        : 1182
  295. Stream size                              : 45.1 KiB (0%)
  296. Language                                 : Malay
  297. Default                                  : No
  298. Forced                                   : No
  299. Text #20
  300. ID                                       : 22
  301. Format                                   : UTF-8
  302. Codec ID                                 : S_TEXT/UTF8
  303. Codec ID/Info                            : UTF-8 Plain Text
  304. Duration                                 : 1 h 37 min
  305. Bit rate                                 : 60 b/s
  306. Frame rate                               : 0.201 FPS
  307. Count of elements                        : 1177
  308. Stream size                              : 43.4 KiB (0%)
  309. Language                                 : Norwegian Bokmal
  310. Default                                  : No
  311. Forced                                   : No
  312. Text #21
  313. ID                                       : 23
  314. Format                                   : UTF-8
  315. Codec ID                                 : S_TEXT/UTF8
  316. Codec ID/Info                            : UTF-8 Plain Text
  317. Duration                                 : 1 h 37 min
  318. Bit rate                                 : 58 b/s
  319. Frame rate                               : 0.202 FPS
  320. Count of elements                        : 1180
  321. Stream size                              : 41.4 KiB (0%)
  322. Language                                 : Dutch
  323. Default                                  : No
  324. Forced                                   : No
  325. Text #22
  326. ID                                       : 24
  327. Format                                   : UTF-8
  328. Codec ID                                 : S_TEXT/UTF8
  329. Codec ID/Info                            : UTF-8 Plain Text
  330. Duration                                 : 1 h 37 min
  331. Bit rate                                 : 57 b/s
  332. Frame rate                               : 0.201 FPS
  333. Count of elements                        : 1175
  334. Stream size                              : 40.7 KiB (0%)
  335. Language                                 : Polish
  336. Default                                  : No
  337. Forced                                   : No
  338. Text #23
  339. ID                                       : 25
  340. Format                                   : UTF-8
  341. Codec ID                                 : S_TEXT/UTF8
  342. Codec ID/Info                            : UTF-8 Plain Text
  343. Duration                                 : 1 h 37 min
  344. Bit rate                                 : 63 b/s
  345. Frame rate                               : 0.202 FPS
  346. Count of elements                        : 1180
  347. Stream size                              : 45.5 KiB (0%)
  348. Title                                    : Brazilian
  349. Language                                 : Portuguese (BR)
  350. Default                                  : No
  351. Forced                                   : No
  352. Text #24
  353. ID                                       : 26
  354. Format                                   : UTF-8
  355. Codec ID                                 : S_TEXT/UTF8
  356. Codec ID/Info                            : UTF-8 Plain Text
  357. Duration                                 : 1 h 37 min
  358. Bit rate                                 : 61 b/s
  359. Frame rate                               : 0.202 FPS
  360. Count of elements                        : 1181
  361. Stream size                              : 43.8 KiB (0%)
  362. Language                                 : Portuguese (PT)
  363. Default                                  : No
  364. Forced                                   : No
  365. Text #25
  366. ID                                       : 27
  367. Format                                   : UTF-8
  368. Codec ID                                 : S_TEXT/UTF8
  369. Codec ID/Info                            : UTF-8 Plain Text
  370. Duration                                 : 1 h 37 min
  371. Bit rate                                 : 69 b/s
  372. Frame rate                               : 0.202 FPS
  373. Count of elements                        : 1180
  374. Stream size                              : 49.6 KiB (0%)
  375. Language                                 : Romanian
  376. Default                                  : No
  377. Forced                                   : No
  378. Text #26
  379. ID                                       : 28
  380. Format                                   : UTF-8
  381. Codec ID                                 : S_TEXT/UTF8
  382. Codec ID/Info                            : UTF-8 Plain Text
  383. Duration                                 : 1 h 37 min
  384. Bit rate                                 : 102 b/s
  385. Frame rate                               : 0.202 FPS
  386. Count of elements                        : 1182
  387. Stream size                              : 73.4 KiB (0%)
  388. Language                                 : Russian
  389. Default                                  : No
  390. Forced                                   : No
  391. Text #27
  392. ID                                       : 29
  393. Format                                   : UTF-8
  394. Codec ID                                 : S_TEXT/UTF8
  395. Codec ID/Info                            : UTF-8 Plain Text
  396. Duration                                 : 1 h 37 min
  397. Bit rate                                 : 61 b/s
  398. Frame rate                               : 0.201 FPS
  399. Count of elements                        : 1176
  400. Stream size                              : 43.8 KiB (0%)
  401. Language                                 : Swedish
  402. Default                                  : No
  403. Forced                                   : No
  404. Text #28
  405. ID                                       : 30
  406. Format                                   : UTF-8
  407. Codec ID                                 : S_TEXT/UTF8
  408. Codec ID/Info                            : UTF-8 Plain Text
  409. Duration                                 : 1 h 37 min
  410. Bit rate                                 : 151 b/s
  411. Frame rate                               : 0.202 FPS
  412. Count of elements                        : 1182
  413. Stream size                              : 108 KiB (0%)
  414. Language                                 : Thai
  415. Default                                  : No
  416. Forced                                   : No
  417. Text #29
  418. ID                                       : 31
  419. Format                                   : UTF-8
  420. Codec ID                                 : S_TEXT/UTF8
  421. Codec ID/Info                            : UTF-8 Plain Text
  422. Duration                                 : 1 h 37 min
  423. Bit rate                                 : 61 b/s
  424. Frame rate                               : 0.186 FPS
  425. Count of elements                        : 1087
  426. Stream size                              : 43.8 KiB (0%)
  427. Language                                 : Turkish
  428. Default                                  : No
  429. Forced                                   : No
  430. Text #30
  431. ID                                       : 32
  432. Format                                   : UTF-8
  433. Codec ID                                 : S_TEXT/UTF8
  434. Codec ID/Info                            : UTF-8 Plain Text
  435. Duration                                 : 1 h 37 min
  436. Bit rate                                 : 102 b/s
  437. Frame rate                               : 0.202 FPS
  438. Count of elements                        : 1182
  439. Stream size                              : 73.4 KiB (0%)
  440. Language                                 : Ukrainian
  441. Default                                  : No
  442. Forced                                   : No
  443. Text #31
  444. ID                                       : 33
  445. Format                                   : UTF-8
  446. Codec ID                                 : S_TEXT/UTF8
  447. Codec ID/Info                            : UTF-8 Plain Text
  448. Duration                                 : 1 h 37 min
  449. Bit rate                                 : 90 b/s
  450. Frame rate                               : 0.201 FPS
  451. Count of elements                        : 1175
  452. Stream size                              : 64.8 KiB (0%)
  453. Language                                 : Vietnamese
  454. Default                                  : No
  455. Forced                                   : No
  456. Text #32
  457. ID                                       : 34
  458. Format                                   : UTF-8
  459. Codec ID                                 : S_TEXT/UTF8
  460. Codec ID/Info                            : UTF-8 Plain Text
  461. Duration                                 : 1 h 37 min
  462. Bit rate                                 : 58 b/s
  463. Frame rate                               : 0.202 FPS
  464. Count of elements                        : 1180
  465. Stream size                              : 41.4 KiB (0%)
  466. Title                                    : Simplified
  467. Language                                 : Chinese (Simplied)
  468. Default                                  : No
  469. Forced                                   : No
  470. Text #33
  471. ID                                       : 35
  472. Format                                   : UTF-8
  473. Codec ID                                 : S_TEXT/UTF8
  474. Codec ID/Info                            : UTF-8 Plain Text
  475. Duration                                 : 1 h 37 min
  476. Bit rate                                 : 58 b/s
  477. Frame rate                               : 0.202 FPS
  478. Count of elements                        : 1180
  479. Stream size                              : 41.9 KiB (0%)
  480. Title                                    : Traditional
  481. Language                                 : Chinese (Traditional)
  482. Default                                  : No
  483. Forced                                   : No
  484. Menu
  485. 01:37:31.000                             : en:End Credits
复制代码











LiSA:又是美好的一天[中笔墨幕].LiSA.Another.Great.Day.2022.JAPANESE.2160p.NF.WEB-DL.x265.10bit.HDR.DDP5.1-MARKISGAE 9.78GB

LiSA.Another.Great.Day.2022.JAPANESE.2160p.NF.WEB-DL.x265.10bit.HDR.DDP5.1-MARKI.torrent

25.13 KB, 下载次数: 7, 下载积分: 蓝光币 -2

回复

使用道具 举报

懒得打字嘛,点击右侧快捷回复 【右侧内容,后台自定义】
您需要登录后才可以回帖 登录 | 立即加入

本版积分规则

Copyright © 2024 Comsenz Inc. Powered by 蓝光电影网

本站内容由用户自主分享和转载自互联网,转载目的在于传递更多信息,并不代表本网赞同其观点和对其真实性负责。

如有侵权、违反国家法律政策行为,请联系我们,我们会第一时间及时清除和处理!

举报反馈邮箱:4k1080.com@gmail.com

快速回复 返回顶部 返回列表