找回密码

查看: 2517|回复: 0

[REMUX.HEVC] 灰天鹅绒上的四只苍蝇.Four.Flies.On.Grey.Velvet.1971.ITALIAN.2160p.BluRay.REMUX.HEVC.DTS-HD.MA.2.0-FGT 69.54GB

[复制链接]
蓝光币
2027
发表于 2023-1-6 23:10:01 | 显示全部楼层 |阅读模式


◎标  题 灰天鹅绒上的四只苍蝇
◎译  名 Four Flies on Grey Velvet
◎片  名 4 mosche di velluto grigio
◎年  代 1971
◎产  地 意大利 / 法国
◎类  别 悬疑 / 惊悚 / 可骇
◎语  言 意大利语
◎上映日期 1971-12-17
◎IMDb评分 6.6/10 (8874人评价)
◎IMDb链接 https://www.imdb.com/title/tt0066735/
◎豆瓣评分 6.6/10 (422人评价)
◎豆瓣链接 https://movie.douban.com/subject/1849128/
◎片  长 104 分钟
◎导  演 达里奥·阿基多 Dario Argento
◎编  剧 达里奥·阿基多 Dario Argento
       路易吉·科齐 Luigi Cozzi
◎演  员 迈克尔·布兰登 Michael Brandon
       梅茜·珐玛 Mimsy Farmer
       让-皮埃尔·马里埃尔 Jean-Pierre Marielle
       弗朗辛·拉塞特 Francine Racette
       劳拉·德罗塞勒 Laura Troschel
       Marisa Fabbri Marisa Fabbri
       斯特凡诺·萨塔·弗洛雷斯 Stefano Satta Flores
       斯特法诺·奥佩迪萨诺 Stefano Oppedisano
       Diego Morreale Diego Morreale
       Fabrizio Moroni Fabrizio Moroni
       Corrado Olmi Corrado Olmi
       伦佐·马里尼亚诺 Renzo Marignano
       奥莱斯特·莱内罗 Oreste Lionello
       布德·斯藩塞 Bud Spencer
       路易吉·科齐 Luigi Cozzi
       Calisto Calisti Calisto Calisti
       Guerrino Crivello Guerrino Crivello
       桑德罗·铎尼 Sandro Dori
       阿尔多·巴菲·兰迪 Aldo Bufi Landi
       恩尼奥·莫里康内 Ennio Morricone
       Franco Di Giacomo Franco Di Giacomo
       弗朗西斯·波诺娃 Françoise Bonnot
       恩里科·萨巴蒂尼 Enrico Sabbatini
◎简  介
  Roberto, a drummer in a rock band, keeps receiving weird phone calls and being followed by a mysterious man. One night he manages to catch up with his persecutor and tries to get him to talk but in the ensuing struggle he accidentally stabs him. He runs away, but he understands his troubles have just begun when the following day he receives an envelope with photos of him killin...
  1. Video
  2. ID                                       : 1
  3. ID in the original source medium         : 4113 (0x1011)
  4. Format                                   : HEVC
  5. Format/Info                              : High Efficiency Video Coding
  6. Format profile                           : Main 10@L5.1@High
  7. HDR format                               : Dolby Vision, Version 1.0, dvhe.07.06, BL+EL+RPU, Blu-ray compatible / SMPTE ST 2086, HDR10 compatible
  8. Codec ID                                 : V_MPEGH/ISO/HEVC
  9. Duration                                 : 1 h 43 min
  10. Bit rate                                 : 91.0 Mb/s
  11. Width                                    : 3 840 pixels
  12. Height                                   : 2 160 pixels
  13. Display aspect ratio                     : 16:9
  14. Frame rate mode                          : Constant
  15. Frame rate                               : 23.976 (24000/1001) FPS
  16. Color space                              : YUV
  17. Chroma subsampling                       : 4:2:0 (Type 2)
  18. Bit depth                                : 10 bits
  19. Bits/(Pixel*Frame)                       : 0.458
  20. Stream size                              : 65.8 GiB (95%)
  21. Language                                 : English
  22. Default                                  : No
  23. Forced                                   : No
  24. Color range                              : Limited
  25. Color primaries                          : BT.2020
  26. Transfer characteristics                 : PQ
  27. Matrix coefficients                      : BT.2020 non-constant
  28. Mastering display color primaries        : BT.2020
  29. Mastering display luminance              : min: 0.0001 cd/m2, max: 1000 cd/m2
  30. Original source medium                   : Blu-ray
  31. Audio #1
  32. ID                                       : 2
  33. ID in the original source medium         : 4353 (0x1101)
  34. Format                                   : DTS XLL
  35. Format/Info                              : Digital Theater Systems
  36. Commercial name                          : DTS-HD Master Audio
  37. Codec ID                                 : A_DTS
  38. Duration                                 : 1 h 43 min
  39. Bit rate mode                            : Variable
  40. Bit rate                                 : 1 828 kb/s
  41. Channel(s)                               : 2 channels
  42. Channel layout                           : L R
  43. Sampling rate                            : 48.0 kHz
  44. Frame rate                               : 93.750 FPS (512 SPF)
  45. Bit depth                                : 24 bits
  46. Compression mode                         : Lossless
  47. Stream size                              : 1.32 GiB (2%)
  48. Title                                    : DTS-HD MA 2.0
  49. Language                                 : Italian
  50. Default                                  : Yes
  51. Forced                                   : No
  52. Original source medium                   : Blu-ray
  53. Audio #2
  54. ID                                       : 3
  55. Format                                   : AC-3
  56. Format/Info                              : Audio Coding 3
  57. Commercial name                          : Dolby Digital
  58. Codec ID                                 : A_AC3
  59. Duration                                 : 1 h 43 min
  60. Bit rate mode                            : Constant
  61. Bit rate                                 : 640 kb/s
  62. Channel(s)                               : 2 channels
  63. Channel layout                           : L R
  64. Sampling rate                            : 48.0 kHz
  65. Frame rate                               : 31.250 FPS (1536 SPF)
  66. Compression mode                         : Lossy
  67. Stream size                              : 473 MiB (1%)
  68. Title                                    : DD 2.0
  69. Language                                 : Italian
  70. Service kind                             : Complete Main
  71. Default                                  : No
  72. Forced                                   : No
  73. Audio #3
  74. ID                                       : 4
  75. ID in the original source medium         : 4352 (0x1100)
  76. Format                                   : DTS XLL
  77. Format/Info                              : Digital Theater Systems
  78. Commercial name                          : DTS-HD Master Audio
  79. Codec ID                                 : A_DTS
  80. Duration                                 : 1 h 43 min
  81. Bit rate mode                            : Variable
  82. Bit rate                                 : 1 843 kb/s
  83. Channel(s)                               : 2 channels
  84. Channel layout                           : L R
  85. Sampling rate                            : 48.0 kHz
  86. Frame rate                               : 93.750 FPS (512 SPF)
  87. Bit depth                                : 24 bits
  88. Compression mode                         : Lossless
  89. Stream size                              : 1.33 GiB (2%)
  90. Title                                    : DTS-HD MA 2.0
  91. Language                                 : English
  92. Default                                  : No
  93. Forced                                   : No
  94. Original source medium                   : Blu-ray
  95. Audio #4
  96. ID                                       : 5
  97. Format                                   : AC-3
  98. Format/Info                              : Audio Coding 3
  99. Commercial name                          : Dolby Digital
  100. Codec ID                                 : A_AC3
  101. Duration                                 : 1 h 43 min
  102. Bit rate mode                            : Constant
  103. Bit rate                                 : 640 kb/s
  104. Channel(s)                               : 2 channels
  105. Channel layout                           : L R
  106. Sampling rate                            : 48.0 kHz
  107. Frame rate                               : 31.250 FPS (1536 SPF)
  108. Compression mode                         : Lossy
  109. Stream size                              : 473 MiB (1%)
  110. Title                                    : DD 2.0
  111. Language                                 : English
  112. Service kind                             : Complete Main
  113. Default                                  : No
  114. Forced                                   : No
  115. Audio #5
  116. ID                                       : 6
  117. ID in the original source medium         : 4354 (0x1102)
  118. Format                                   : AC-3
  119. Format/Info                              : Audio Coding 3
  120. Commercial name                          : Dolby Digital
  121. Codec ID                                 : A_AC3
  122. Duration                                 : 1 h 43 min
  123. Bit rate mode                            : Constant
  124. Bit rate                                 : 256 kb/s
  125. Channel(s)                               : 2 channels
  126. Channel layout                           : L R
  127. Sampling rate                            : 48.0 kHz
  128. Frame rate                               : 31.250 FPS (1536 SPF)
  129. Compression mode                         : Lossy
  130. Stream size                              : 189 MiB (0%)
  131. Title                                    : DD 2.0
  132. Language                                 : English
  133. Service kind                             : Complete Main
  134. Default                                  : No
  135. Forced                                   : No
  136. Original source medium                   : Blu-ray
  137. Text #1
  138. ID                                       : 7
  139. Format                                   : UTF-8
  140. Codec ID                                 : S_TEXT/UTF8
  141. Codec ID/Info                            : UTF-8 Plain Text
  142. Duration                                 : 1 h 33 min
  143. Bit rate                                 : 1 b/s
  144. Frame rate                               : 0.005 FPS
  145. Count of elements                        : 28
  146. Stream size                              : 959 Bytes (0%)
  147. Title                                    : FORCED
  148. Language                                 : English
  149. Default                                  : No
  150. Forced                                   : No
  151. Text #2
  152. ID                                       : 8
  153. Format                                   : UTF-8
  154. Codec ID                                 : S_TEXT/UTF8
  155. Codec ID/Info                            : UTF-8 Plain Text
  156. Duration                                 : 1 h 39 min
  157. Bit rate                                 : 36 b/s
  158. Frame rate                               : 0.116 FPS
  159. Count of elements                        : 690
  160. Stream size                              : 26.3 KiB (0%)
  161. Language                                 : English
  162. Default                                  : Yes
  163. Forced                                   : No
  164. Text #3
  165. ID                                       : 9
  166. Format                                   : UTF-8
  167. Codec ID                                 : S_TEXT/UTF8
  168. Codec ID/Info                            : UTF-8 Plain Text
  169. Duration                                 : 1 h 35 min
  170. Bit rate                                 : 33 b/s
  171. Frame rate                               : 0.163 FPS
  172. Count of elements                        : 939
  173. Stream size                              : 23.3 KiB (0%)
  174. Title                                    : for EN DUB
  175. Language                                 : English
  176. Default                                  : No
  177. Forced                                   : No
  178. Text #4
  179. ID                                       : 10
  180. Format                                   : UTF-8
  181. Codec ID                                 : S_TEXT/UTF8
  182. Codec ID/Info                            : UTF-8 Plain Text
  183. Duration                                 : 1 h 42 min
  184. Bit rate                                 : 37 b/s
  185. Frame rate                               : 0.186 FPS
  186. Count of elements                        : 1147
  187. Stream size                              : 28.0 KiB (0%)
  188. Title                                    : SDH for EN DUB
  189. Language                                 : English
  190. Default                                  : No
  191. Forced                                   : No
  192. Text #5
  193. ID                                       : 11
  194. ID in the original source medium         : 4768 (0x12A0)
  195. Format                                   : PGS
  196. Muxing mode                              : zlib
  197. Codec ID                                 : S_HDMV/PGS
  198. Codec ID/Info                            : Picture based subtitle format used on BDs/HD-DVDs
  199. Duration                                 : 1 h 33 min
  200. Bit rate                                 : 970 b/s
  201. Frame rate                               : 0.012 FPS
  202. Count of elements                        : 68
  203. Stream size                              : 663 KiB (0%)
  204. Language                                 : English
  205. Default                                  : No
  206. Forced                                   : No
  207. Original source medium                   : Blu-ray
  208. Text #6
  209. ID                                       : 12
  210. ID in the original source medium         : 4769 (0x12A1)
  211. Format                                   : PGS
  212. Muxing mode                              : zlib
  213. Codec ID                                 : S_HDMV/PGS
  214. Codec ID/Info                            : Picture based subtitle format used on BDs/HD-DVDs
  215. Duration                                 : 1 h 42 min
  216. Bit rate                                 : 24.3 kb/s
  217. Frame rate                               : 0.290 FPS
  218. Count of elements                        : 1791
  219. Stream size                              : 17.9 MiB (0%)
  220. Language                                 : English
  221. Default                                  : No
  222. Forced                                   : No
  223. Original source medium                   : Blu-ray
  224. Text #7
  225. ID                                       : 13
  226. ID in the original source medium         : 4770 (0x12A2)
  227. Format                                   : PGS
  228. Muxing mode                              : zlib
  229. Codec ID                                 : S_HDMV/PGS
  230. Codec ID/Info                            : Picture based subtitle format used on BDs/HD-DVDs
  231. Duration                                 : 1 h 39 min
  232. Bit rate                                 : 22.2 kb/s
  233. Frame rate                               : 0.237 FPS
  234. Count of elements                        : 1414
  235. Stream size                              : 15.7 MiB (0%)
  236. Language                                 : English
  237. Default                                  : No
  238. Forced                                   : No
  239. Original source medium                   : Blu-ray
  240. Menu
  241. 00:00:00.000                             : en:Chapter 01
  242. 00:07:13.975                             : en:Chapter 02
  243. 00:21:41.842                             : en:Chapter 03
  244. 00:29:39.402                             : en:Chapter 04
  245. 00:41:29.570                             : en:Chapter 05
  246. 00:52:23.932                             : en:Chapter 06
  247. 00:59:47.500                             : en:Chapter 07
  248. 01:09:54.273                             : en:Chapter 08
  249. 01:15:03.290                             : en:Chapter 09
  250. 01:22:55.387                             : en:Chapter 10
  251. 01:28:04.654                             : en:Chapter 11
  252. 01:40:05.708                             : en:Chapter 12
复制代码











回复

使用道具 举报

懒得打字嘛,点击右侧快捷回复 【右侧内容,后台自定义】
您需要登录后才可以回帖 登录 | 立即加入

本版积分规则

Archiver| |网站地图

Copyright © 2024 Comsenz Inc. Powered by 蓝光电影网

本站内容由用户自主分享和转载自互联网,转载目的在于传递更多信息,并不代表本网赞同其观点和对其真实性负责。

如有侵权、违反国家法律政策行为,请联系我们,我们会第一时间及时清除和处理!

举报反馈邮箱:4k1080.com@gmail.com

快速回复 返回顶部 返回列表