找回密码

蓝光电影网

查看: 697|回复: 0

[2160p-WEB] 非洲城的后裔[中文字幕].Descendant.2022.2160p.NF.WEB-DL.x265.10bit.SDR.DDP5.1-XEBEC 13.99GB

[复制链接]
蓝光币
1451
发表于 2023-1-6 23:12:51 | 显示全部楼层 |阅读模式


◎标  题 非洲城的后裔
◎片  名 Descendant
◎年  代 2022
◎产  地 美国
◎类  别 记载片 / 历史
◎语  言 英语
◎上映日期 2022-10-21(美国/美国收集)
◎IMDb评分 7.1/10 (54人评价)
◎IMDb链接 https://www.imdb.com/title/tt16376494/
◎豆瓣链接 https://movie.douban.com/subject/35694765/
◎导  演 玛格丽特·布朗 Margaret Brown
◎简  介
  Follows descendants of the survivors from the Clotilda, the last ship that carried enslaved Africans to the United States, as they reclaim their story.
  1. Video
  2. ID                                       : 1
  3. Format                                   : HEVC
  4. Format/Info                              : High Efficiency Video Coding
  5. Format profile                           : Main 10@L5@Main
  6. Codec ID                                 : V_MPEGH/ISO/HEVC
  7. Duration                                 : 1 h 49 min
  8. Bit rate                                 : 17.6 Mb/s
  9. Width                                    : 3 840 pixels
  10. Height                                   : 2 160 pixels
  11. Display aspect ratio                     : 16:9
  12. Frame rate mode                          : Constant
  13. Frame rate                               : 23.976 (24000/1001) FPS
  14. Color space                              : YUV
  15. Chroma subsampling                       : 4:2:0
  16. Bit depth                                : 10 bits
  17. Bits/(Pixel*Frame)                       : 0.088
  18. Stream size                              : 13.5 GiB (96%)
  19. Default                                  : Yes
  20. Forced                                   : No
  21. Color range                              : Limited
  22. Color primaries                          : BT.709
  23. Transfer characteristics                 : BT.709
  24. Matrix coefficients                      : BT.709
  25. Audio
  26. ID                                       : 2
  27. Format                                   : E-AC-3
  28. Format/Info                              : Enhanced AC-3
  29. Commercial name                          : Dolby Digital Plus
  30. Codec ID                                 : A_EAC3
  31. Duration                                 : 1 h 49 min
  32. Bit rate mode                            : Constant
  33. Bit rate                                 : 640 kb/s
  34. Channel(s)                               : 6 channels
  35. Channel layout                           : L R C LFE Ls Rs
  36. Sampling rate                            : 48.0 kHz
  37. Frame rate                               : 31.250 FPS (1536 SPF)
  38. Compression mode                         : Lossy
  39. Stream size                              : 503 MiB (4%)
  40. Title                                    : English
  41. Language                                 : English
  42. Service kind                             : Complete Main
  43. Default                                  : Yes
  44. Forced                                   : No
  45. Text #1
  46. ID                                       : 3
  47. Format                                   : UTF-8
  48. Codec ID                                 : S_TEXT/UTF8
  49. Codec ID/Info                            : UTF-8 Plain Text
  50. Duration                                 : 1 h 27 min
  51. Bit rate                                 : 5 b/s
  52. Frame rate                               : 0.017 FPS
  53. Count of elements                        : 87
  54. Stream size                              : 3.45 KiB (0%)
  55. Title                                    : English (Forced)
  56. Language                                 : English
  57. Default                                  : Yes
  58. Forced                                   : Yes
  59. Text #2
  60. ID                                       : 4
  61. Format                                   : UTF-8
  62. Codec ID                                 : S_TEXT/UTF8
  63. Codec ID/Info                            : UTF-8 Plain Text
  64. Duration                                 : 1 h 47 min
  65. Bit rate                                 : 138 b/s
  66. Frame rate                               : 0.253 FPS
  67. Count of elements                        : 1630
  68. Stream size                              : 109 KiB (0%)
  69. Title                                    : Arabic
  70. Language                                 : Arabic
  71. Default                                  : No
  72. Forced                                   : No
  73. Text #3
  74. ID                                       : 5
  75. Format                                   : UTF-8
  76. Codec ID                                 : S_TEXT/UTF8
  77. Codec ID/Info                            : UTF-8 Plain Text
  78. Duration                                 : 1 h 47 min
  79. Bit rate                                 : 85 b/s
  80. Frame rate                               : 0.243 FPS
  81. Count of elements                        : 1567
  82. Stream size                              : 67.0 KiB (0%)
  83. Title                                    : Czech
  84. Language                                 : Czech
  85. Default                                  : No
  86. Forced                                   : No
  87. Text #4
  88. ID                                       : 6
  89. Format                                   : UTF-8
  90. Codec ID                                 : S_TEXT/UTF8
  91. Codec ID/Info                            : UTF-8 Plain Text
  92. Duration                                 : 1 h 47 min
  93. Bit rate                                 : 80 b/s
  94. Frame rate                               : 0.232 FPS
  95. Count of elements                        : 1496
  96. Stream size                              : 63.4 KiB (0%)
  97. Title                                    : Danish
  98. Language                                 : Danish
  99. Default                                  : No
  100. Forced                                   : No
  101. Text #5
  102. ID                                       : 7
  103. Format                                   : UTF-8
  104. Codec ID                                 : S_TEXT/UTF8
  105. Codec ID/Info                            : UTF-8 Plain Text
  106. Duration                                 : 1 h 47 min
  107. Bit rate                                 : 87 b/s
  108. Frame rate                               : 0.247 FPS
  109. Count of elements                        : 1590
  110. Stream size                              : 68.5 KiB (0%)
  111. Title                                    : German
  112. Language                                 : German
  113. Default                                  : No
  114. Forced                                   : No
  115. Text #6
  116. ID                                       : 8
  117. Format                                   : UTF-8
  118. Codec ID                                 : S_TEXT/UTF8
  119. Codec ID/Info                            : UTF-8 Plain Text
  120. Duration                                 : 1 h 47 min
  121. Bit rate                                 : 147 b/s
  122. Frame rate                               : 0.257 FPS
  123. Count of elements                        : 1659
  124. Stream size                              : 116 KiB (0%)
  125. Title                                    : Modern Greek (1453-)
  126. Language                                 : Greek
  127. Default                                  : No
  128. Forced                                   : No
  129. Text #7
  130. ID                                       : 9
  131. Format                                   : UTF-8
  132. Codec ID                                 : S_TEXT/UTF8
  133. Codec ID/Info                            : UTF-8 Plain Text
  134. Duration                                 : 1 h 47 min
  135. Bit rate                                 : 95 b/s
  136. Frame rate                               : 0.263 FPS
  137. Count of elements                        : 1693
  138. Stream size                              : 75.3 KiB (0%)
  139. Title                                    : English (SDH)
  140. Language                                 : English
  141. Default                                  : No
  142. Forced                                   : No
  143. Text #8
  144. ID                                       : 10
  145. Format                                   : UTF-8
  146. Codec ID                                 : S_TEXT/UTF8
  147. Codec ID/Info                            : UTF-8 Plain Text
  148. Duration                                 : 1 h 47 min
  149. Bit rate                                 : 84 b/s
  150. Frame rate                               : 0.248 FPS
  151. Count of elements                        : 1600
  152. Stream size                              : 66.3 KiB (0%)
  153. Title                                    : Spanish
  154. Language                                 : Spanish
  155. Default                                  : No
  156. Forced                                   : No
  157. Text #9
  158. ID                                       : 11
  159. Format                                   : UTF-8
  160. Codec ID                                 : S_TEXT/UTF8
  161. Codec ID/Info                            : UTF-8 Plain Text
  162. Duration                                 : 1 h 47 min
  163. Bit rate                                 : 85 b/s
  164. Frame rate                               : 0.253 FPS
  165. Count of elements                        : 1632
  166. Stream size                              : 67.0 KiB (0%)
  167. Title                                    : Spanish
  168. Language                                 : Spanish
  169. Default                                  : No
  170. Forced                                   : No
  171. Text #10
  172. ID                                       : 12
  173. Format                                   : UTF-8
  174. Codec ID                                 : S_TEXT/UTF8
  175. Codec ID/Info                            : UTF-8 Plain Text
  176. Duration                                 : 1 h 47 min
  177. Bit rate                                 : 81 b/s
  178. Frame rate                               : 0.234 FPS
  179. Count of elements                        : 1506
  180. Stream size                              : 64.2 KiB (0%)
  181. Title                                    : Finnish
  182. Language                                 : Finnish
  183. Default                                  : No
  184. Forced                                   : No
  185. Text #11
  186. ID                                       : 13
  187. Format                                   : UTF-8
  188. Codec ID                                 : S_TEXT/UTF8
  189. Codec ID/Info                            : UTF-8 Plain Text
  190. Duration                                 : 1 h 47 min
  191. Bit rate                                 : 87 b/s
  192. Frame rate                               : 0.255 FPS
  193. Count of elements                        : 1646
  194. Stream size                              : 68.7 KiB (0%)
  195. Title                                    : Filipino
  196. Language                                 : fil
  197. Default                                  : No
  198. Forced                                   : No
  199. Text #12
  200. ID                                       : 14
  201. Format                                   : UTF-8
  202. Codec ID                                 : S_TEXT/UTF8
  203. Codec ID/Info                            : UTF-8 Plain Text
  204. Duration                                 : 1 h 47 min
  205. Bit rate                                 : 85 b/s
  206. Frame rate                               : 0.243 FPS
  207. Count of elements                        : 1566
  208. Stream size                              : 67.2 KiB (0%)
  209. Title                                    : French
  210. Language                                 : French
  211. Default                                  : No
  212. Forced                                   : No
  213. Text #13
  214. ID                                       : 15
  215. Format                                   : UTF-8
  216. Codec ID                                 : S_TEXT/UTF8
  217. Codec ID/Info                            : UTF-8 Plain Text
  218. Duration                                 : 1 h 47 min
  219. Bit rate                                 : 128 b/s
  220. Frame rate                               : 0.254 FPS
  221. Count of elements                        : 1641
  222. Stream size                              : 101 KiB (0%)
  223. Title                                    : Hebrew
  224. Language                                 : Hebrew
  225. Default                                  : No
  226. Forced                                   : No
  227. Text #14
  228. ID                                       : 16
  229. Format                                   : UTF-8
  230. Codec ID                                 : S_TEXT/UTF8
  231. Codec ID/Info                            : UTF-8 Plain Text
  232. Duration                                 : 1 h 47 min
  233. Bit rate                                 : 71 b/s
  234. Frame rate                               : 0.246 FPS
  235. Count of elements                        : 1585
  236. Stream size                              : 56.0 KiB (0%)
  237. Title                                    : Croatian
  238. Language                                 : Croatian
  239. Default                                  : No
  240. Forced                                   : No
  241. Text #15
  242. ID                                       : 17
  243. Format                                   : UTF-8
  244. Codec ID                                 : S_TEXT/UTF8
  245. Codec ID/Info                            : UTF-8 Plain Text
  246. Duration                                 : 1 h 47 min
  247. Bit rate                                 : 87 b/s
  248. Frame rate                               : 0.251 FPS
  249. Count of elements                        : 1616
  250. Stream size                              : 69.1 KiB (0%)
  251. Title                                    : Hungarian
  252. Language                                 : Hungarian
  253. Default                                  : No
  254. Forced                                   : No
  255. Text #16
  256. ID                                       : 18
  257. Format                                   : UTF-8
  258. Codec ID                                 : S_TEXT/UTF8
  259. Codec ID/Info                            : UTF-8 Plain Text
  260. Duration                                 : 1 h 47 min
  261. Bit rate                                 : 83 b/s
  262. Frame rate                               : 0.237 FPS
  263. Count of elements                        : 1529
  264. Stream size                              : 65.7 KiB (0%)
  265. Title                                    : Indonesian
  266. Language                                 : Indonesian
  267. Default                                  : No
  268. Forced                                   : No
  269. Text #17
  270. ID                                       : 19
  271. Format                                   : UTF-8
  272. Codec ID                                 : S_TEXT/UTF8
  273. Codec ID/Info                            : UTF-8 Plain Text
  274. Duration                                 : 1 h 47 min
  275. Bit rate                                 : 80 b/s
  276. Frame rate                               : 0.244 FPS
  277. Count of elements                        : 1572
  278. Stream size                              : 63.8 KiB (0%)
  279. Title                                    : Italian
  280. Language                                 : Italian
  281. Default                                  : No
  282. Forced                                   : No
  283. Text #18
  284. ID                                       : 20
  285. Format                                   : UTF-8
  286. Codec ID                                 : S_TEXT/UTF8
  287. Codec ID/Info                            : UTF-8 Plain Text
  288. Duration                                 : 1 h 46 min
  289. Bit rate                                 : 108 b/s
  290. Frame rate                               : 0.262 FPS
  291. Count of elements                        : 1676
  292. Stream size                              : 84.7 KiB (0%)
  293. Title                                    : Japanese
  294. Language                                 : Japanese
  295. Default                                  : No
  296. Forced                                   : No
  297. Text #19
  298. ID                                       : 21
  299. Format                                   : UTF-8
  300. Codec ID                                 : S_TEXT/UTF8
  301. Codec ID/Info                            : UTF-8 Plain Text
  302. Duration                                 : 1 h 47 min
  303. Bit rate                                 : 101 b/s
  304. Frame rate                               : 0.265 FPS
  305. Count of elements                        : 1712
  306. Stream size                              : 80.0 KiB (0%)
  307. Title                                    : Korean
  308. Language                                 : Korean
  309. Default                                  : No
  310. Forced                                   : No
  311. Text #20
  312. ID                                       : 22
  313. Format                                   : UTF-8
  314. Codec ID                                 : S_TEXT/UTF8
  315. Codec ID/Info                            : UTF-8 Plain Text
  316. Duration                                 : 1 h 47 min
  317. Bit rate                                 : 81 b/s
  318. Frame rate                               : 0.246 FPS
  319. Count of elements                        : 1587
  320. Stream size                              : 64.2 KiB (0%)
  321. Title                                    : Malay (macrolanguage)
  322. Language                                 : Malay
  323. Default                                  : No
  324. Forced                                   : No
  325. Text #21
  326. ID                                       : 23
  327. Format                                   : UTF-8
  328. Codec ID                                 : S_TEXT/UTF8
  329. Codec ID/Info                            : UTF-8 Plain Text
  330. Duration                                 : 1 h 46 min
  331. Bit rate                                 : 73 b/s
  332. Frame rate                               : 0.226 FPS
  333. Count of elements                        : 1450
  334. Stream size                              : 57.8 KiB (0%)
  335. Title                                    : Norwegian Bokm?l
  336. Language                                 : Norwegian Bokmal
  337. Default                                  : No
  338. Forced                                   : No
  339. Text #22
  340. ID                                       : 24
  341. Format                                   : UTF-8
  342. Codec ID                                 : S_TEXT/UTF8
  343. Codec ID/Info                            : UTF-8 Plain Text
  344. Duration                                 : 1 h 47 min
  345. Bit rate                                 : 83 b/s
  346. Frame rate                               : 0.234 FPS
  347. Count of elements                        : 1511
  348. Stream size                              : 66.0 KiB (0%)
  349. Title                                    : Dutch
  350. Language                                 : Dutch
  351. Default                                  : No
  352. Forced                                   : No
  353. Text #23
  354. ID                                       : 25
  355. Format                                   : UTF-8
  356. Codec ID                                 : S_TEXT/UTF8
  357. Codec ID/Info                            : UTF-8 Plain Text
  358. Duration                                 : 1 h 46 min
  359. Bit rate                                 : 80 b/s
  360. Frame rate                               : 0.250 FPS
  361. Count of elements                        : 1603
  362. Stream size                              : 63.1 KiB (0%)
  363. Title                                    : Polish
  364. Language                                 : Polish
  365. Default                                  : No
  366. Forced                                   : No
  367. Text #24
  368. ID                                       : 26
  369. Format                                   : UTF-8
  370. Codec ID                                 : S_TEXT/UTF8
  371. Codec ID/Info                            : UTF-8 Plain Text
  372. Duration                                 : 1 h 47 min
  373. Bit rate                                 : 84 b/s
  374. Frame rate                               : 0.248 FPS
  375. Count of elements                        : 1601
  376. Stream size                              : 66.3 KiB (0%)
  377. Title                                    : Portuguese
  378. Language                                 : Portuguese
  379. Default                                  : No
  380. Forced                                   : No
  381. Text #25
  382. ID                                       : 27
  383. Format                                   : UTF-8
  384. Codec ID                                 : S_TEXT/UTF8
  385. Codec ID/Info                            : UTF-8 Plain Text
  386. Duration                                 : 1 h 47 min
  387. Bit rate                                 : 81 b/s
  388. Frame rate                               : 0.252 FPS
  389. Count of elements                        : 1625
  390. Stream size                              : 64.1 KiB (0%)
  391. Title                                    : Portuguese
  392. Language                                 : Portuguese
  393. Default                                  : No
  394. Forced                                   : No
  395. Text #26
  396. ID                                       : 28
  397. Format                                   : UTF-8
  398. Codec ID                                 : S_TEXT/UTF8
  399. Codec ID/Info                            : UTF-8 Plain Text
  400. Duration                                 : 1 h 46 min
  401. Bit rate                                 : 93 b/s
  402. Frame rate                               : 0.238 FPS
  403. Count of elements                        : 1523
  404. Stream size                              : 72.8 KiB (0%)
  405. Title                                    : Romanian
  406. Language                                 : Romanian
  407. Default                                  : No
  408. Forced                                   : No
  409. Text #27
  410. ID                                       : 29
  411. Format                                   : UTF-8
  412. Codec ID                                 : S_TEXT/UTF8
  413. Codec ID/Info                            : UTF-8 Plain Text
  414. Duration                                 : 1 h 47 min
  415. Bit rate                                 : 142 b/s
  416. Frame rate                               : 0.256 FPS
  417. Count of elements                        : 1651
  418. Stream size                              : 112 KiB (0%)
  419. Title                                    : Russian
  420. Language                                 : Russian
  421. Default                                  : No
  422. Forced                                   : No
  423. Text #28
  424. ID                                       : 30
  425. Format                                   : UTF-8
  426. Codec ID                                 : S_TEXT/UTF8
  427. Codec ID/Info                            : UTF-8 Plain Text
  428. Duration                                 : 1 h 47 min
  429. Bit rate                                 : 81 b/s
  430. Frame rate                               : 0.209 FPS
  431. Count of elements                        : 1351
  432. Stream size                              : 63.8 KiB (0%)
  433. Title                                    : Swedish
  434. Language                                 : Swedish
  435. Default                                  : No
  436. Forced                                   : No
  437. Text #29
  438. ID                                       : 31
  439. Format                                   : UTF-8
  440. Codec ID                                 : S_TEXT/UTF8
  441. Codec ID/Info                            : UTF-8 Plain Text
  442. Duration                                 : 1 h 47 min
  443. Bit rate                                 : 201 b/s
  444. Frame rate                               : 0.255 FPS
  445. Count of elements                        : 1643
  446. Stream size                              : 158 KiB (0%)
  447. Title                                    : Thai
  448. Language                                 : Thai
  449. Default                                  : No
  450. Forced                                   : No
  451. Text #30
  452. ID                                       : 32
  453. Format                                   : UTF-8
  454. Codec ID                                 : S_TEXT/UTF8
  455. Codec ID/Info                            : UTF-8 Plain Text
  456. Duration                                 : 1 h 47 min
  457. Bit rate                                 : 80 b/s
  458. Frame rate                               : 0.240 FPS
  459. Count of elements                        : 1551
  460. Stream size                              : 63.1 KiB (0%)
  461. Title                                    : Turkish
  462. Language                                 : Turkish
  463. Default                                  : No
  464. Forced                                   : No
  465. Text #31
  466. ID                                       : 33
  467. Format                                   : UTF-8
  468. Codec ID                                 : S_TEXT/UTF8
  469. Codec ID/Info                            : UTF-8 Plain Text
  470. Duration                                 : 1 h 47 min
  471. Bit rate                                 : 138 b/s
  472. Frame rate                               : 0.248 FPS
  473. Count of elements                        : 1599
  474. Stream size                              : 109 KiB (0%)
  475. Title                                    : Ukrainian
  476. Language                                 : Ukrainian
  477. Default                                  : No
  478. Forced                                   : No
  479. Text #32
  480. ID                                       : 34
  481. Format                                   : UTF-8
  482. Codec ID                                 : S_TEXT/UTF8
  483. Codec ID/Info                            : UTF-8 Plain Text
  484. Duration                                 : 1 h 47 min
  485. Bit rate                                 : 124 b/s
  486. Frame rate                               : 0.231 FPS
  487. Count of elements                        : 1490
  488. Stream size                              : 97.8 KiB (0%)
  489. Title                                    : Vietnamese
  490. Language                                 : Vietnamese
  491. Default                                  : No
  492. Forced                                   : No
  493. Text #33
  494. ID                                       : 35
  495. Format                                   : UTF-8
  496. Codec ID                                 : S_TEXT/UTF8
  497. Codec ID/Info                            : UTF-8 Plain Text
  498. Duration                                 : 1 h 47 min
  499. Bit rate                                 : 88 b/s
  500. Frame rate                               : 0.256 FPS
  501. Count of elements                        : 1648
  502. Stream size                              : 69.3 KiB (0%)
  503. Title                                    : Simplified, Chinese
  504. Language                                 : Chinese
  505. Default                                  : No
  506. Forced                                   : No
  507. Text #34
  508. ID                                       : 36
  509. Format                                   : UTF-8
  510. Codec ID                                 : S_TEXT/UTF8
  511. Codec ID/Info                            : UTF-8 Plain Text
  512. Duration                                 : 1 h 47 min
  513. Bit rate                                 : 84 b/s
  514. Frame rate                               : 0.261 FPS
  515. Count of elements                        : 1684
  516. Stream size                              : 66.4 KiB (0%)
  517. Title                                    : Traditional, Chinese
  518. Language                                 : Chinese
  519. Default                                  : No
  520. Forced                                   : No
  521. Menu
  522. 00:00:00.000                             : en:Part 01
  523. 01:44:19.450                             : en:Credits
复制代码











回复

使用道具 举报

懒得打字嘛,点击右侧快捷回复 【右侧内容,后台自定义】
您需要登录后才可以回帖 登录 | 立即加入

本版积分规则

Archiver|小黑屋| 蓝光电影网 |网站地图

Copyright © 2021 Comsenz Inc. Powered by 蓝光电影网

蓝光电影网

本站内容由用户自主分享和转载自互联网,转载目的在于传递更多信息,并不代表本网赞同其观点和对其真实性负责。

如有侵权、违反国家法律政策行为,请联系我们,我们会第一时间及时清除和处理!

举报反馈邮箱:4k1080.com@gmail.com

快速回复 返回顶部 返回列表