找回密码

查看: 1320|回复: 0

[2160p-WEB] 传染病.Contagion.2011.2160p.HMAX.WEB-DL.x265.10bit.HDR.DTS-HD.MA.5.1-NOGRP 15.99GB

[复制链接]
蓝光币
1840
发表于 2023-1-6 23:13:06 | 显示全部楼层 |阅读模式


◎标  题 沾抱病
◎译  名 世纪战疫(港) / 全境分散(台) / 沾染
◎片  名 Contagion
◎年  代 2011
◎产  地 美国 / 阿联酋
◎类  别 剧情 / 科幻 / 惊悚 / 灾难
◎语  言 英语 / 汉语普通话 / 粤语
◎上映日期 2011-09-03(威尼斯电影节) / 2011-09-09(美国)
◎IMDb评分 6.8/10 (305331人评价)
◎IMDb链接 https://www.imdb.com/title/tt1598778/
◎豆瓣评分 7.1/10 (144144人评价)
◎豆瓣链接 https://movie.douban.com/subject/4301043/
◎片  长 106分钟
◎导  演 史蒂文·索德伯格 Steven Soderbergh
◎编  剧 斯科特·Z·本恩斯 Scott Z. Burns
◎演  员 玛丽昂·歌迪亚 Marion Cotillard
       马特·达蒙 Matt Damon
       劳伦斯·菲什伯恩 Laurence Fishburne
       裘德·洛 Jude Law
       格温妮斯·帕特洛 Gwyneth Paltrow
       凯特·温丝莱特 Kate Winslet
       布莱恩·科兰斯顿 Bryan Cranston
       詹妮弗·艾莉 Jennifer Ehle
       埃利奥特·古尔德 Elliott Gould
       黄经汉 Chin Han
       约翰·浩克斯 John Hawkes
       安娜·雅克贝-海伦 Anna Jacoby-Heron
       何超仪 Josie Ho
       桑娜·莱瑟 Sanaa Lathan
       迪米特利·马丁 Demetri Martin
       阿敏·罗德 Armin Rohde
       恩里克·克兰东尼 Enrico Colantoni
       拉里·克拉克 Larry Clarke
       莫尼克·加布里埃拉·库尔内 Monique Gabriela Curnen
       徐天助 Tien You Chui
       达丽雅·斯托寇思 Daria Strokous
       格里芬·凯恩 Griffin Kane
       斯蒂夫·托瓦 Stef Tovar
       格蕾丝·雷克斯 Grace Rex
       瑞贝卡·斯宾塞 Rebecca Spence
       丹·阿霍 Dan Aho
       布莱恩·J·奥唐纳 Brian J. O'Donnell
       安娜贝尔·阿尔莫 Annabel Armour
       卡拉·泽迪克尔 Kara Zediker
       丹·弗兰纳里 Dan Flannery
       史蒂文·索德伯格 Steven Soderbergh
       洪金宝 Sammo Hung Kam-Bo
       黄子雄 Geoffrey Wong Chi-Hung
       海伦·萨德勒 Helen Sadler
       蒋静菊 Jingju Jiang
       布兰登·乔纳森·王 Brandon Jonathan Wong
       亚历山大·卡内拉科斯 Alexander Kanellakos
       史蒂文·索德伯格 Steven Soderbergh
       克里夫·马丁内斯 Cliff Martinez
       史蒂文·索德伯格 Steven Soderbergh
       Louise Frogley Louise Frogley
       洛基·卡佩拉 Rocky Capella
◎简  介
  影片报告了一种新型致命病毒在几天之内囊括全球的故事。贝丝(格温妮丝·帕特洛 Gwyneth Paltrow 饰)从香港出差回明尼阿波利斯的家后突发疾病灭亡,丈夫托马斯 (马特·达蒙 Matt Damon 饰)辅佐Dr. Erin Mears (凯特·温斯莱特 Kate Winslet 饰)观察真相。可怕的是一样病症的患者在天下范围内大范围出现,病毒在不停舒展。诡计论记者阿伦(裘德·洛 Jude Law 饰)乘隙散布对政府和医疗机构晦气的言论。Dr. Leonora Orantes (玛丽昂·歌迪亚 Marion Cotillard 饰)被派往香港观察病因,但却被外乡医生(黄经汉 Chin Han 饰)截留作为交换疫苗的人质。在Dr. Ellis Cheever (劳伦斯·菲什伯恩 Laurence Fishburne 饰)和年轻医生Ally Hext...
  1. Video
  2. ID                                       : 1
  3. Format                                   : HEVC
  4. Format/Info                              : High Efficiency Video Coding
  5. Format profile                           : Main 10@L5@Main
  6. HDR format                               : Dolby Vision, Version 1.0, dvhe.08.06, BL+RPU, HDR10 compatible / SMPTE ST 2086, HDR10 compatible
  7. Codec ID                                 : V_MPEGH/ISO/HEVC
  8. Duration                                 : 1 h 46 min
  9. Bit rate                                 : 17.2 Mb/s
  10. Width                                    : 3 840 pixels
  11. Height                                   : 2 160 pixels
  12. Display aspect ratio                     : 16:9
  13. Frame rate mode                          : Constant
  14. Frame rate                               : 23.976 (24000/1001) FPS
  15. Color space                              : YUV
  16. Chroma subsampling                       : 4:2:0
  17. Bit depth                                : 10 bits
  18. Bits/(Pixel*Frame)                       : 0.087
  19. Stream size                              : 12.8 GiB (80%)
  20. Writing library                          : x265 3.4hy:[Linux][GCC 7.5.0][64 bit] 10bit
  21. Encoding settings                        : cpuid=1111039 / frame-threads=1 / wpp / no-pmode / no-pme / no-psnr / no-ssim / log-level=2 / input-csp=1 / input-res=3840x2160 / interlace=0 / total-frames=0 / level-idc=0 / high-tier=1 / uhd-bd=0 / ref=4 / no-allow-non-conformance / repeat-headers / annexb / no-aud / no-hrd / info / hash=0 / no-temporal-layers / no-open-gop / min-keyint=96 / keyint=96 / gop-lookahead=0 / bframes=3 / b-adapt=2 / b-pyramid / bframe-bias=0 / rc-lookahead=25 / lookahead-slices=4 / scenecut=40 / hist-scenecut=0 / radl=0 / no-splice / no-intra-refresh / ctu=64 / min-cu-size=8 / rect / no-amp / max-tu-size=32 / tu-inter-depth=1 / tu-intra-depth=1 / limit-tu=0 / rdoq-level=2 / dynamic-rd=0.00 / no-ssim-rd / signhide / no-tskip / nr-intra=0 / nr-inter=0 / no-constrained-intra / strong-intra-smoothing / max-merge=3 / limit-refs=3 / limit-modes / me=3 / subme=3 / merange=57 / temporal-mvp / no-frame-dup / no-hme / weightp / no-weightb / no-analyze-src-pics / deblock=0:0 / sao / no-sao-non-deblock / rd=4 / selective-sao=4 / no-early-skip / rskip / no-fast-intra / no-tskip-fast / no-cu-lossless / no-b-intra / no-splitrd-skip / rdpenalty=0 / psy-rd=2.00 / psy-rdoq=1.00 / no-rd-refine / no-lossless / cbqpoffs=0 / crqpoffs=0 / rc=abr / bitrate=18000 / qcomp=0.60 / qpstep=4 / stats-write=0 / stats-read=2 / cplxblur=20.0 / qblur=0.5 / vbv-maxrate=24500 / vbv-bufsize=24500 / vbv-init=0.6 / vbv-end=0.6 / vbv-end-fr-adj=0.0 / ipratio=1.40 / pbratio=1.30 / aq-mode=2 / aq-strength=1.00 / cutree / zone-count=0 / no-strict-cbr / qg-size=32 / no-rc-grain / qpmax=69 / qpmin=0 / no-const-vbv / sar=0 / overscan=0 / videoformat=5 / range=0 / colorprim=9 / transfer=16 / colormatrix=9 / chromaloc=0 / display-window=0 / master-display=G(13250,34500)B(7500,3000)R(34000,16000)WP(15635,16450)L(10000000,1) / cll=994,118 / min-luma=0 / max-luma=1023 / log2-max-poc-lsb=8 / vui-timing-info / vui-hrd-info / no-concatenation / slices=1 / no-opt-qp-pps / no-opt-ref-list-length-pps / no-multi-pass-opt-rps / scenecut-bias=0.05 / hist-threshold=0.01 / no-opt-cu-delta-qp / no-aq-motion / hdr10 / no-hdr10-opt / no-dhdr10-opt / no-idr-recovery-sei / analysis-reuse-level=0 / analysis-save-reuse-level=0 / analysis-load-reuse-level=0 / scale-factor=0 / refine-intra=0 / refine-inter=0 / refine-mv=1 / refine-ctu-distortion=0 / no-limit-sao / ctu-info=0 / no-lowpass-dct / refine-analysis-type=0 / copy-pic=1 / max-ausize-factor=1.0 / no-dynamic-refine / no-single-sei / no-hevc-aq / no-svt / no-field / qp-adaptation-range=1.00 / no-scenecut-aware-qpconformance-window-offsets / right=0 / bottom=0 / decoder-max-rate=0
  22. Default                                  : Yes
  23. Forced                                   : No
  24. Color range                              : Limited
  25. Color primaries                          : BT.2020
  26. Transfer characteristics                 : PQ
  27. Matrix coefficients                      : BT.2020 non-constant
  28. Mastering display color primaries        : Display P3
  29. Mastering display luminance              : min: 0.0001 cd/m2, max: 1000 cd/m2
  30. Maximum Content Light Level              : 994 cd/m2
  31. Maximum Frame-Average Light Level        : 118 cd/m2
  32. Audio #1
  33. ID                                       : 2
  34. Format                                   : DTS XLL
  35. Format/Info                              : Digital Theater Systems
  36. Commercial name                          : DTS-HD Master Audio
  37. Codec ID                                 : A_DTS
  38. Duration                                 : 1 h 46 min
  39. Bit rate mode                            : Variable
  40. Bit rate                                 : 3 633 kb/s
  41. Channel(s)                               : 6 channels
  42. Channel layout                           : C L R Ls Rs LFE
  43. Sampling rate                            : 48.0 kHz
  44. Frame rate                               : 93.750 FPS (512 SPF)
  45. Bit depth                                : 24 bits
  46. Compression mode                         : Lossless
  47. Delay relative to video                  : 2 ms
  48. Stream size                              : 2.70 GiB (17%)
  49. Title                                    : DTS-HD MA 5.1
  50. Language                                 : English
  51. Default                                  : Yes
  52. Forced                                   : No
  53. Audio #2
  54. ID                                       : 3
  55. Format                                   : AC-3
  56. Format/Info                              : Audio Coding 3
  57. Commercial name                          : Dolby Digital
  58. Codec ID                                 : A_AC3
  59. Duration                                 : 1 h 46 min
  60. Bit rate mode                            : Constant
  61. Bit rate                                 : 640 kb/s
  62. Channel(s)                               : 6 channels
  63. Channel layout                           : L R C LFE Ls Rs
  64. Sampling rate                            : 48.0 kHz
  65. Frame rate                               : 31.250 FPS (1536 SPF)
  66. Compression mode                         : Lossy
  67. Stream size                              : 487 MiB (3%)
  68. Title                                    : DD 5.1
  69. Language                                 : English
  70. Service kind                             : Complete Main
  71. Default                                  : No
  72. Forced                                   : No
  73. Text #1
  74. ID                                       : 4
  75. Format                                   : UTF-8
  76. Codec ID                                 : S_TEXT/UTF8
  77. Codec ID/Info                            : UTF-8 Plain Text
  78. Duration                                 : 1 h 39 min
  79. Bit rate                                 : 74 b/s
  80. Frame rate                               : 0.207 FPS
  81. Count of elements                        : 1236
  82. Stream size                              : 54.2 KiB (0%)
  83. Language                                 : English
  84. Default                                  : Yes
  85. Forced                                   : No
  86. Text #2
  87. ID                                       : 5
  88. Format                                   : UTF-8
  89. Codec ID                                 : S_TEXT/UTF8
  90. Codec ID/Info                            : UTF-8 Plain Text
  91. Duration                                 : 1 h 40 min
  92. Bit rate                                 : 78 b/s
  93. Frame rate                               : 0.222 FPS
  94. Count of elements                        : 1337
  95. Stream size                              : 57.3 KiB (0%)
  96. Title                                    : SDH
  97. Language                                 : English
  98. Default                                  : No
  99. Forced                                   : No
复制代码











回复

使用道具 举报

懒得打字嘛,点击右侧快捷回复 【右侧内容,后台自定义】
您需要登录后才可以回帖 登录 | 立即加入

本版积分规则

Copyright © 2024 Comsenz Inc. Powered by 蓝光电影网

本站内容由用户自主分享和转载自互联网,转载目的在于传递更多信息,并不代表本网赞同其观点和对其真实性负责。

如有侵权、违反国家法律政策行为,请联系我们,我们会第一时间及时清除和处理!

举报反馈邮箱:4k1080.com@gmail.com

快速回复 返回顶部 返回列表